Готель Руанда / Hotel Rwanda (2004) 1080p Ukr/Eng | Sub Ukr/Eng

Нові коментарі

Нова тема   Відповісти
Автор Повідомлення
Anonymous 







2020-08-15 19:56  
Готель Руанда / Hotel Rwanda (2004) 1080p Ukr/Eng | Sub Ukr/Eng



Жанр: трилер, драма, воєнний, біографія, історія
Країна: США, Велика Британія, Італія, ПАР

Top 250 #225

Кіностудія / кінокомпанія: Lions Gate Films
Режисер: Террі Джордж / Terry George
Актори: Дон Чідл, Софі Оконедо, Хоакін Фенікс, Нік Нолті, Антоніо Девід Лайонс, Моцусі Магано, Жан Рено

Сюжет:
Сюжет фільму заснований на реальних подіях середини 90-х років минулого століття, коли плем'я хуту, яке становило в Руанді етнічну більшість, влаштувало в країні криваву різанину, знищивши понад мільйон людей, що належали племені тутсі.

Головний герой фільму на ім'я Пол - керівник престижного готелю в столиці Руанди, в якому від убивць сховалися кілька сотень людей. Пол робить все від нього залежне, щоб їх врятувати. Ситуація ускладнюється тим, що дружина Пола також належить племені тутсі. У Пола великі зв'язки, він не гребує ні підкупом, ні шантажем, він погрожує, благає, лестить ... І рятує від загибелі 1268 чоловік.
Нагороди:

2005
Лауреат премії «Європейська академія кіномистецтва»
в категорії «Найкращий європейський композитор»
[Руперт Грегсон-Вільямс]

2005
Лауреат премії «Європейська академія кіномистецтва»
в категорії «Найкращий європейський композитор»
[Андре Гуерра]
Номінації:

2005
Номінант премії «Золотий Глобус»
в категорії «Найкращий фільм (драма)»

2005
Номінант премії «Золотий Глобус»
в категорії «Найкращий виконавець чоловічої ролі (драма)»
[Дон Чидл]

2005
Номінант премії «Золотий Глобус»
в категорії «Найкраща оригінальна композиція»

2005
Номінант премії «Оскар»
в категорії «Найкращий актор»
[Дон Чідл]

2005
Номінант премії «Оскар»
в категорії «Найкраща акторка другого плану»
[Софі Оконедо]

2005
Номінант премії «Оскар»
в категорії «Найкращий оригінальний сценарій»
[Кейр Пірсон]

2005
Номінант премії «Оскар»
в категорії «Найкращий оригінальний сценарій»
[Террі Джордж]
Тривалість: 02:01:51
Якість: 1080p

Відео:
кодек:
розмір кадру: 1918x816
бітрейт: ~ 11 мб/с

Аудіо # 1:
мова: українська
переклад: багатоголосий закадровий | Цікава ідея
кодек: 5.1
бітрейт: 640 кб/с

Аудіо # 2:
мова: українська
переклад: багатоголосий закадровий | Цікава ідея
кодек: 5.1
бітрейт: 1536 кб/с

Аудіо # 3:
мова: англійська
переклад: оригінал
кодек: 5.1
бітрейт: 640 кб/с

Аудіо # 4:
мова: англійська
переклад: оригінал
кодек: 5.1
бітрейт: 1536 кб/с

Аудіо # 5:
мова: англійська
переклад: коментарі
кодек: 2.0
бітрейт: 256 кб/с

Субтитри #1:
мова: українська
тип: пререндерні
формат: *.pgs

Субтитри #2:
мова: англійська
тип: пререндерні
формат: *.pgs

Джерело озвучення:
На замовлення Hurtom.com

Скріншоти




Звіт Info:
Код:
General
Complete name                            : Hotel Rwanda (2004) 1080p [Ukr_Eng] [Video_Hurtom].
Format                                   :
Format version                           : Version 4
File size                                : 13.3 GiB
Duration                                 : 2 h 1 min
Overall bit rate                         : 15.6 Mb/s
Movie name                               : Готель Руанда / Hotel Rwanda (2004)
Encoded date                             : UTC 2020-08-14 18:49:54
Writing application                      : v30.1.0 ('Forever And More') 64-bit
Writing library                          : libebml v1.3.6 + v1.4.9
Cover                                    : Yes
Attachments                              : cover.jpg

Video
ID                                       : 1
Format                                   : AVC
Format/Info                              : Advanced Video Codec
Format profile                           : [email protected]
Format settings                          : CABAC / 5 Ref Frames
Format settings, CABAC                   : Yes
Format settings, RefFrames               : 5 frames
Codec ID                                 : V_MPEG4/ISO/AVC
Duration                                 : 2 h 1 min
Bit rate                                 : 11.0 Mb/s
Width                                    : 1 918 pixels
Height                                   : 816 pixels
Display aspect ratio                     : 2.35:1
Frame rate mode                          : Constant
Frame rate                               : 23.976 (24000/1001) FPS
Color space                              : YUV
Chroma subsampling                       : 4:2:0
Bit depth                                : 8 bits
Scan type                                : Progressive
Bits/(Pixel*Frame)                       : 0.293
Stream size                              : 9.36 GiB (70%)
Writing library                          : core 110 r1804 e89c4cf
Encoding settings                        : cabac=1 / ref=5 / deblock=1:-3:-3 / analyse=0x3:0x133 / me=tesa / subme=10 / psy=1 / psy_rd=0.80:0.00 / mixed_ref=1 / me_range=32 / chroma_me=1 / trellis=2 / 8x8dct=1 / cqm=0 / deadzone=21,11 / fast_pskip=0 / chroma_qp_offset=-2 / threads=12 / sliced_threads=0 / nr=0 / decimate=0 / interlaced=0 / constrained_intra=0 / bframes=6 / b_pyramid=2 / b_adapt=2 / b_bias=0 / direct=3 / weightb=1 / open_gop=0 / weightp=2 / keyint=250 / keyint_min=23 / scenecut=40 / intra_refresh=0 / rc_lookahead=40 / rc=2pass / mbtree=1 / bitrate=11000 / ratetol=1.0 / qcomp=0.60 / qpmin=0 / qpmax=51 / qpstep=4 / cplxblur=20.0 / qblur=0.5 / ip_ratio=1.40 / aq=1:0.80
Language                                 : English
Default                                  : Yes
Forced                                   : No

Audio #1
ID                                       : 2
Format                                   : AC-3
Format/Info                              : Audio Coding 3
Commercial name                          : Dolby Digital
Codec ID                                 : A_AC3
Duration                                 : 2 h 1 min
Bit rate mode                            : Constant
Bit rate                                 : 640 kb/s
Channel(s)                               : 6 channels
Channel layout                           : L R C LFE Ls Rs
Sampling rate                            : 48.0 kHz
Frame rate                               : 31.250 FPS (1536 SPF)
Bit depth                                : 16 bits
Compression mode                         : Lossy
Stream size                              : 558 MiB (4%)
Title                                    : 5.1 | 640
Language                                 : Ukrainian
Service kind                             : Complete Main
Default                                  : Yes
Forced                                   : No

Audio #2
ID                                       : 3
Format                                   :
Format/Info                              : Digital Theater Systems
Codec ID                                 : A_DTS
Duration                                 : 2 h 1 min
Bit rate mode                            : Constant
Bit rate                                 : 1 536 kb/s
Channel(s)                               : 6 channels
Channel layout                           : C L R Ls Rs LFE
Sampling rate                            : 48.0 kHz
Frame rate                               : 93.750 FPS (512 SPF)
Bit depth                                : 16 bits
Compression mode                         : Lossy
Stream size                              : 1.31 GiB (10%)
Title                                    : 5.1 | 1536
Language                                 : Ukrainian
Default                                  : No
Forced                                   : No

Audio #3
ID                                       : 4
Format                                   : AC-3
Format/Info                              : Audio Coding 3
Commercial name                          : Dolby Digital
Codec ID                                 : A_AC3
Duration                                 : 2 h 1 min
Bit rate mode                            : Constant
Bit rate                                 : 640 kb/s
Channel(s)                               : 6 channels
Channel layout                           : L R C LFE Ls Rs
Sampling rate                            : 48.0 kHz
Frame rate                               : 31.250 FPS (1536 SPF)
Bit depth                                : 16 bits
Compression mode                         : Lossy
Stream size                              : 558 MiB (4%)
Title                                    : 5.1 | 640
Language                                 : English
Service kind                             : Complete Main
Default                                  : No
Forced                                   : No

Audio #4
ID                                       : 5
Format                                   :
Format/Info                              : Digital Theater Systems
Codec ID                                 : A_DTS
Duration                                 : 2 h 1 min
Bit rate mode                            : Constant
Bit rate                                 : 1 536 kb/s
Channel(s)                               : 6 channels
Channel layout                           : C L R Ls Rs LFE
Sampling rate                            : 48.0 kHz
Frame rate                               : 93.750 FPS (512 SPF)
Bit depth                                : 16 bits
Compression mode                         : Lossy
Stream size                              : 1.31 GiB (10%)
Title                                    : 5.1 | 1536
Language                                 : English
Default                                  : No
Forced                                   : No

Audio #5
ID                                       : 6
Format                                   : AC-3
Format/Info                              : Audio Coding 3
Commercial name                          : Dolby Digital
Codec ID                                 : A_AC3
Duration                                 : 2 h 1 min
Bit rate mode                            : Constant
Bit rate                                 : 256 kb/s
Channel(s)                               : 2 channels
Channel layout                           : L R
Sampling rate                            : 48.0 kHz
Frame rate                               : 31.250 FPS (1536 SPF)
Bit depth                                : 16 bits
Compression mode                         : Lossy
Stream size                              : 223 MiB (2%)
Title                                    : 2.0 | 256
Language                                 : English
Service kind                             : Complete Main
Default                                  : No
Forced                                   : No

Text #1
ID                                       : 7
Format                                   : PGS
Muxing mode                              : zlib
Codec ID                                 : S_HDMV/PGS
Codec ID/Info                            : Picture based subtitle format used on BDs/HD-DVDs
Duration                                 : 1 h 55 min
Bit rate                                 : 27.1 kb/s
Count of elements                        : 2536
Stream size                              : 22.4 MiB (0%)
Language                                 : Ukrainian
Default                                  : Yes
Forced                                   : No

Text #2
ID                                       : 8
Format                                   : PGS
Muxing mode                              : zlib
Codec ID                                 : S_HDMV/PGS
Codec ID/Info                            : Picture based subtitle format used on BDs/HD-DVDs
Duration                                 : 1 h 54 min
Bit rate                                 : 45.4 kb/s
Count of elements                        : 3192
Stream size                              : 37.4 MiB (0%)
Language                                 : English
Default                                  : No
Forced                                   : No
Про озвучення:

Українське озвучення створено на замовлення Hurtom.com в рамках проекту "Хочеш кіно українською? Замовляй!"



Дякуємо користувачам, що фінансово допомогли проекту:
Медяник, AlGor-1, deepzb11, Alien8, Hadron, OLENOCHKA1980, cheks, bordiur4yk, MarianB, foevtcov, Triffid, Назар Хочубий, Sheldon, maryana, Ялина, Arijl, andryk, ponedilok, Bushido, Sergo_k_s_v, slava_4, rudchenkos, Nazz80, deepfree, seitar, Yelovbasted, Тарас12, MisterR, MutuLI, willian, Dim-ON, victor_v, Skif3, at3s, vilnui, IvanB123456, cyclone2000, yarik_ratnik, Beneverfearful, kivan, virtus8hur, JoaJoa16, danyshtv, Aussie, Лунсар, nemos, sash.kr, Rost3, krotyk, nemos, stalker_cv, Demetrios, kino., Dars, NemoInFire, somnambula, sania2011, ppk21, Violator, freshwind
Також дякуємо 110 користувачам, що надали фінансову допомогу, але побажали бути анонімними.

Детальніше про проект.
Джерело:
Особиста оцінка: 0 - не дивився
За постер подяка bilenkuyboy.
Фільми, які було озвучено на замовлення Гуртом (допоможіть озвучити наступні):
М: Місто шукає вбивцю (1931)
Чарівник країни Оз (1939)
Великий диктатор (1940)
Громадянин Кейн (1941)
Подвійна страховка (1944)
Це дивовижне життя (1946)
Викрадачі велосипедів (1948)
Рашьомон (1950)
Сім самураїв (1954)
У випадку вбивства телефонуйте "М" (1954)
Дияволиці (1955)
Леді та Блудько (1955)
12 розгніваних чоловіків (1957)
Кривавий трон (1957)
Сьома печатка (1957)
На північ через північний захід (1959)
Більярдист (1961)
Охоронець (1961)
Вбити пересмішника (1962)
Людина, що вбила Ліберті Веленса (1962)
Вісім з половиною (1963)
Велика прогулянка (1966)
Як Ґрінч украв Різдво! (1966)
Випускник (1967)
Самурай (1967)
Одного разу на Дикому Заході (1968)
Коти-аристократи (1970)
Механічний апельсин (1971)
Навколо світу за 80 днів (1972)
Паперовий місяць (1973)
Китайський квартал (1974)
Пролітаючи над гніздом зозулі (1975)
Телемережа (1976)
Енні Голл (1977)
Мисливець на оленів (1978)
Буття Брайана за Монті Пайтоном (1979)
Коли я буду там (1979)
Мангеттен (1979)
Людина-слон (1980)
Приборкання норовливого (1980)
Скажений бик (1980)
Підводний човен (1981)
Ґанді (1982)
Король комедії (1982)
Різдвяна історія (1983)
Амадей (1984)
Просто кров (1984)
Барва пурпурова (1985)
Бразилія (1985)
Ран (1985)
Великий мишачий детектив (1986)
Небесний замок Лапута (1986)
Часи радіо (1987)
Акіра (1988)
Мій сусід Тоторо (1988)
Останній з могікан (1992)
Скажені пси (1992)
Шосе в нікуди (1997)
Американська історія Ікс (1998)
Страх і огида в Лас-Вегасі (1998)
Шоу Трумена (1998)
Догма (1999)
Магнолія (1999)
Сука любов (2000)
Нічия земля (2001)
Родина Тененбаумів (2001)
Тріо з Бельвіля (2003)
Труднощі перекладу (2003)
Бункер (2004)
Готель Руанда (2004)
Тренер Картер (2005)
Льодовиковий період 2 (2006)
Лабіринт Фавна (2006)
Людина з планети Земля (2007)
В тіні місяця (2007)
Голод (2008)
Іп Мен (2008)
Викрадена (2008)
Впусти мене (2008)
Хвиля (2008)
Містер Ніхто (2009)
13 вбивць (2010)
Бетмен: Під червоною маскою (2010)
Іп Мен 2 (2010)
Котяче життя (2010)
Позичайка Аріетті (2010)
Чорний Лебідь (2010)
Місто (2010)
Сенна (2010)
50/50 (2011)
Адвокат на лінкольні (2011)
Дерево життя (2011)
Опівночі в Парижі (2011)
Воїн (2011)
Драйв (2011)
Життя за один день (2011)
Укриття (2011)
Хижа в лісі (2011)
Рейд: Спокута (2011)
Акт вбивства (2012)
Арго (2012)
Безпека не гарантується (2012)
Викрадена 2 (2012)
Збірка промінців надії (2012)
Ернест і Селестіна (2012)
Звірі дикого Півдня (2012)
Лінкольн (2012)
Любов (2012)
Надійні хлопці (2012)
Паркер (2012)
Переваги скромників (2012)
Пліч-о-пліч (2012)
Полювання (2012)
Розірване коло (2012)
Суддя Дредд (2012)
Тридцять хвилин по півночі (2012)
Що б ви зробили (2012)
Американська афера (2013)
Виклик (2013)
Вона (2013)
Ворог (2013)
Всередині Л'ювіна Девіса (2013)
Джо (2013)
Зловісні мерці (2013)
Іда (2013)
Лок (2013)
Небраска (2013)
Неймовірна подорож містера Співета (2013)
Побічна дія (2013)
Перед північчю (2013)
Снігобур (2013)
Стокер (2013)
TPB: за межами клавіатури (2013)
Гниле місто (2013)
Бердмен (2014)
Вероніка Марс (2014)
Вроджена вада (2014)
Дика (2014)
Інтерв'ю (2014)
Святий Вінсент (2014)
Пісня моря (2014)
Призначення (2014)
Чим ми займаємося в тінях (2014)
Шеф-кухар (2014)
Безрідні звірі (2015)
Бруклін (2015)
Земля картелів (2015) нове
Кімната (2015)
Я, Ерл та помираюча дівчина (2015)
Манчестер біля моря (2016) нове
Нічні звірі (2016) нове


Авторський реліз (завантажувати можна без реєстрації)
 Трекер:    Зареєстрований   

Завантажити / скачати фільм українською



відео для новачків



 Зареєстрований:   2020-08-15 19:56
 Розмір:   13.3 GB 
 Оцінка фільму:   9.5/10 (Голосів: 6)
   
Інші релізи
mutomba 
VIP


З нами з: 20.10.13
Востаннє: 26.09.20
Повідомлень: 361

2020-08-16 14:23  
Важке кіно...
dr-jazz 
Новенький


З нами з: 22.09.10
Востаннє: 23.09.20
Повідомлень: 16

2020-08-29 20:00  
Тут, здається, помилка:

Цитата:
не гребує ні підкупом, ні шантажем, він загрожує, благає, лестить

Мабуть "погрожує" треба

Ваш часовий пояс: GMT + 2 Години

Нова тема   Відповісти