Норм та нестримні. Велика пригода / Norm of the North King Sized Adventure (2019) 1080p Ukr/Eng | Sub Eng

Нові коментарі

Нова тема   Відповісти
Автор Повідомлення
sergiyko.5 
Забанено
Забанено


З нами з: 25.02.16
Востаннє: 29.10.20
Повідомлень: 3648

2020-08-14 20:19  
Норм та нестримні. Велика пригода / Norm of the North King Sized Adventure (2019) 1080p Ukr/Eng | Sub Eng


Норм та нестримні. Велика пригода / Norm of the North King Sized Adventure (2019) 1080p Ukr/Eng | Sub Eng

Жанр: анімація, пригоди
Країна: США, Індія, Південна Корея, Китай
Кінокомпанія: Assemblage, Dream Factory Group, Splash Entertainment
Режисер: Річард Фінн, Тім Молтбі
Актори: Ліза Дурупт, Вінсент Тонг, Джонатан Холмс, Лі Токар, Майкл Добсон ...

Сюжет:
Покровитель Арктики, миролюбний білий ведмідь Норм виручає в скрутну хвилину археолога-авантюриста Джина, якого зрадив його ж напарник. Він викрав у Джина цінний китайський артефакт, який веде до тайника зі скарбами. Разом з маленькими друзями-лемінгами Норм відправляється в невідому раніше подорож, щоб повернути вкрадену реліквію.




Тривалість: 01:30:05
Якість:

Відео: кодек: розмір кадру: 1908 х 1068 бітрейт: 5100 кб/с
Аудіо # 1: мова: українська озвучення: професійне дубльоване кодек: 2.0 бітрейт: 192 кб/с | ТЕТ |
Аудіо # 2: мова: англійська озвучення: оригінал кодек: 5.1 бітрейт: 384 кб/с
Субтитри: мова: англійська тип: програмні (м'які) формат: *.srt
Про файл:
General
Unique ID : 271548107842736538396307401061032669505 (0xCC4A43629F3A6DA3D9DC9322615E3141)
Complete name : D:\Documents\Torrents\FILMS\Norm.of.the.North.King.Sized.Adventure.2019.1080p..Ukr.Eng.
Format :
Format version : Version 4
File size : 3.58 GiB
Duration : 1 h 30 min
Overall bit rate : 5 682 kb/s
Movie name : Norm of the North. King Sized Adventure 2019 by sergiyko
Encoded date : UTC 2020-08-14 18:11:51
Writing application : v47.0.0 ('Black Flag') 64-bit
Writing library : libebml v1.3.10 + v1.5.2
Cover : Yes
Attachments : cover.jpeg

Video
ID : 1
Format : AVC
Format/Info : Advanced Video Codec
Format profile : [email protected]
Format settings : CABAC / 4 Ref Frames
Format settings, CABAC : Yes
Format settings, Reference : 4 frames
Codec ID : V_MPEG4/ISO/AVC
Duration : 1 h 30 min
Bit rate : 5 103 kb/s
Width : 1 908 pixels
Height : 1 068 pixels
Display aspect ratio : 16:9
Frame rate mode : Constant
Frame rate : 23.976 FPS
Color space : YUV
Chroma subsampling : 4:2:0
Bit depth : 8 bits
Scan type : Progressive
Bits/(Pixel*Frame) : 0.104
Stream size : 3.21 GiB (90%)
Title : Norm.of.the.North.King.Sized.Adventure.2019
Language : English
Default : Yes
Forced : No
Color range : Limited
Color primaries : BT.709
Transfer characteristics : BT.709
Matrix coefficients : BT.709

Audio #1
ID : 2
Format : AC-3
Format/Info : Audio Coding 3
Commercial name : Dolby Digital
Codec ID : A_AC3
Duration : 1 h 30 min
Bit rate mode : Constant
Bit rate : 192 kb/s
Channel(s) : 2 channels
Channel layout : L R
Sampling rate : 48.0 kHz
Frame rate : 31.250 FPS (1536 SPF)
Compression mode : Lossy
Delay relative to video : -42 ms
Stream size : 124 MiB (3%)
Title : DUB 2ch | ТЕТ
Language : Ukrainian
Service kind : Complete Main
Default : Yes
Forced : Yes

Audio #2
ID : 3
Format : AC-3
Format/Info : Audio Coding 3
Commercial name : Dolby Digital
Codec ID : A_AC3
Duration : 1 h 30 min
Bit rate mode : Constant
Bit rate : 384 kb/s
Channel(s) : 6 channels
Channel layout : L R C LFE Ls Rs
Sampling rate : 48.0 kHz
Frame rate : 31.250 FPS (1536 SPF)
Compression mode : Lossy
Delay relative to video : -42 ms
Stream size : 247 MiB (7%)
Title : Original
Language : English
Service kind : Complete Main
Default : No
Forced : No

Text #1
ID : 4
Format : UTF-8
Codec ID : S_TEXT/UTF8
Codec ID/Info : UTF-8 Plain Text
Duration : 1 h 23 min
Bit rate : 46 b/s
Count of elements : 960
Stream size : 28.6 KiB (0%)
Language : English
Default : No
Forced : No

Text #2
ID : 5
Format : UTF-8
Codec ID : S_TEXT/UTF8
Codec ID/Info : UTF-8 Plain Text
Duration : 1 h 25 min
Bit rate : 57 b/s
Count of elements : 1319
Stream size : 36.1 KiB (0%)
Title : SDH
Language : English
Default : No
Forced : No

Menu
00:00:00.000 : en:1
00:02:00.000 : en:2
00:10:28.000 : en:3
00:19:55.000 : en:4
00:31:18.000 : en:5
00:41:36.000 : en:6
00:53:02.000 : en:7
01:03:07.000 : en:8
01:13:25.000 : en:9
01:25:10.000 : en:10
Скріншоти:


Запис: xslim
Зведення: sergiyko


 Трекер:    Зареєстрований   

Завантажити / скачати мультфільм українською



відео для новачків



 Зареєстрований:   2020-08-14 20:19
 Розмір:   3.58 GB 
 Оцінка мультфільму:   10/10 (Голосів: 5)
   
Ваш часовий пояс: GMT + 2 Години

Нова тема   Відповісти