Вишукана Ненсі / Fancy Nancy (Сезон 1) (2018) 1080p

Нові коментарі

Нова тема   Відповісти
Останній раз роздавалося Єгорище (2021-03-28)
Автор Повідомлення
sergiyko.5 
Забанено
Забанено


З нами з: 25.02.16
Востаннє: 29.10.20
Повідомлень: 3648

2020-08-14 11:58  
Всі одноіменні релізи на трекері

Вишукана Ненсі / Fancy Nancy (Сезон 1) (2018) 1080p


Вишукана Ненсі / Fancy Nancy (Сезон 1) (2018) 1080p

Жанр: дитячий, музичний
Країна: США, Канада
Кінокомпанія: Disney Junior
Режисер: Мірчі Мантта, Джемі Мітчелл

Сюжет:
Добра і життєрадісна дівчинка Ненсі Кленсі - юна міс досконалість! Вона обожнює французькі слівця, яскраві вбрання і прикраси, музику і балет. Кожен день шестирічної фантазерки повинен бути неповторним, таким, що запам'ятовується і є дуже-дуже шикарним. Тому вона постійно вигадує для своєї родини і друзів елегантні заняття і розваги: влаштовує для мами день домашніх спа-процедур, запрошує сусідок на королівське чаювання в саду і навіть відкриває власну школу хороших манер. О-ля-ля, ця юна особа просто неповторна!




Тривалість: 1 серія 00:21:42 (цілком серій: 25 з 25)
Якість:

Відео: кодек: розмір кадру: 1920 х 1080 бітрейт: 7365 кб/с
Аудіо: мова: українська озвучення: професійне дубльоване кодек: 2.0 бітрейт: 128 кб/с
Озвучення:
Перелік серій
01.Chez Nancy-School de Fancy
02.Tea Party Trouble-Bonjour Butterfly
03.Nancy’s Ooh La La Spa-Nancy Goes to Work
04.Nancy Versus Dudley-Nancy Makes Her Mark
05.Nancy's Devine Sleepover-Nancy's Sacre Bleu Fondue
06.Nancy's Dog Show Disaster-The Case of the Disappearing Doll
07.La Danse of Friendship-Shoe La La
08.Camp Fancy-Nancy's Vanity D'Art
09.Toodle-oo, Miss Moo-Nancy Clancy, Starmaker
10.Le Cafe Parfait-Mademoiselle Mom
11.Nancy's Costume Clash-Nancy's Ghostly Halloween
12.Grow Up, Jo Jo-Nancy's Supreme Night Out
13.Ice Skater Extraordinary-Nancy L'Artiste
14.Vive La Revolution-Million Dollar Minnow
15.Au Revoir, Jean Claude-Je Spy with My Little Eye
16.Nancy and the Nice List
17.What’s Bugging Nancy-Nancy Clancy, Pet Psychic
18.Nancy, La Poete-Mon Amie... Grace
19.The Amazing Adventures of Grammy and Poppy-Un, Deux, Cha Cha Cha
20.The Imaginary Invalide-Nancy Hops to It
21.Nancy’s Friendship Faux Pas-Nancy’s Parcel Purrrsuit
22.Easter Bonnet Bug-A-Boo-The Great Easter Bunny Stakeout
23.In the Know With Nancy-Nancy's Parfait Pony
24.Nancy's BFF Babysitter-Let's Break a Deal
25.Arts and Crafty-Super Nancy
Про файл:
General
Unique ID : 244648262765661979980993202927929529193 (0xB80D8AA06AC6595EE87B661BA2CE1369)
Complete name : \\nas0257aa\video\MULTSER_01\Fancy Nancy S01 1080p \S01E05.Nancy's Devine Sleepover-Nancy's Sacre Bleu Fondue.1080p..
Format :
Format version : Version 4
File size : 1.14 GiB
Duration : 21 min 42 s
Overall bit rate : 7 496 kb/s
Movie name : Fancy Nancy S01 1080p by sergiyko
Encoded date : UTC 2020-09-26 18:45:47
Writing application : v49.0.0 ('Sick Of Losing Soulmates') 64-bit
Writing library : libebml v1.4.0 + v1.6.1

Video
ID : 1
Format : AVC
Format/Info : Advanced Video Codec
Format profile : [email protected]
Format settings : CABAC / 4 Ref Frames
Format settings, CABAC : Yes
Format settings, Reference : 4 frames
Codec ID : V_MPEG4/ISO/AVC
Duration : 21 min 42 s
Bit rate : 7 365 kb/s
Width : 1 920 pixels
Height : 1 080 pixels
Display aspect ratio : 16:9
Frame rate mode : Constant
Frame rate : 25.000 FPS
Color space : YUV
Chroma subsampling : 4:2:0
Bit depth : 8 bits
Scan type : Progressive
Bits/(Pixel*Frame) : 0.142
Stream size : 1.12 GiB (98%)
Language : English
Default : Yes
Forced : No

Audio
ID : 2
Format : LC
Format/Info : Advanced Audio Codec Low Complexity
Codec ID : A_AAC-2
Duration : 21 min 42 s
Bit rate : 129 kb/s
Channel(s) : 2 channels
Channel layout : L R
Sampling rate : 48.0 kHz
Frame rate : 46.875 FPS (1024 SPF)
Compression mode : Lossy
Stream size : 20.0 MiB (2%)
Language : Ukrainian
Default : Yes
Forced : No
Скріншоти:


Запис: sergiyko


Бронзовий реліз (на рейтинг впливає 75% завантаженого)
 Трекер:    Зареєстрований   

Завантажити / скачати мультфільм українською



відео для новачків



 Зареєстрований:   2020-09-26 22:07
 Розмір:   27.81 GB 
 Оцінка мультсеріалу:   10/10 (Голосів: 9)
   
sergiyko.5 
Забанено
Забанено


З нами з: 25.02.16
Востаннє: 29.10.20
Повідомлень: 3648

2020-08-20 13:50  
Торент оновлено. Додав нові серії.
sergiyko.5 
Забанено
Забанено


З нами з: 25.02.16
Востаннє: 29.10.20
Повідомлень: 3648

2020-08-30 11:03  
Торент оновлено. Додав 12,14-22 серії.
sergiyko.5 
Забанено
Забанено


З нами з: 25.02.16
Востаннє: 29.10.20
Повідомлень: 3648

2020-09-03 10:33  
Додав всі серії до повного сезону. Приємного перегляду!

Коли з'явиться відео кращої якості, реліз буде оновлено, чи створено новий.

NancyFancy 
Новенький


З нами з: 09.09.20
Востаннє: 21.01.21
Повідомлень: 1

2020-09-09 14:50  
Дуже дякую, за мультик! це наш улюблений! Дивилися англійською і чекали на украінську озвучку
sergiyko.5 
Забанено
Забанено


З нами з: 25.02.16
Востаннє: 29.10.20
Повідомлень: 3648

2020-09-26 22:08  
Торент оновлено. Відео кращої якості, менше артефактів.
zulo 
Новенький


З нами з: 20.09.19
Востаннє: 05.01.21
Повідомлень: 1

2020-12-17 18:33  
Підкажіть , а є другий сезон ?
Ваш часовий пояс: GMT + 2 Години

Нова тема   Відповісти