Чоловіки та дружини / Husbands and Wives (1992) 720p Ukr/Eng | Sub Eng

Нові коментарі

Нова тема   Відповісти
Автор Повідомлення
Anonymous 







2020-08-14 11:33  
Чоловіки та дружини / Husbands and Wives (1992) 720p Ukr/Eng | Sub Eng

Чоловіки та дружини / Husbands and Wives (1992) 720p Ukr/Eng | Sub Eng


Жанр: драма, романтика
Країна: США



Кінокомпанія: TriStar Pictures
Режисер: Вуді Аллен (Woody Allen)
Актори: Вуді Аллен (Woody Allen), Міа Фарров (Mia Farrow), Джуді Девіс (Judy Davis), Сідні Поллак (Sydney Pollack), Джульєт Льюіс (Juliette Lewis), Лаям Нісон (Liam Neeson) та інші.

Сюжет:
Традиційно багатошарова трагікомедія Вуді Аллена, який цього разу з’являється в образі невротичного письменника, зануреного в сімейні сварки. Одного разу вони з дружиною дізнаються, що їх старовинні друзі у виконання такої ж чарівної пари Поллака і Девіс мають намір розлучитися.
Як реагувати на це, як з'ясовується, незрозуміло. Начебто боязно, а начебто і спокусливо. У результаті письменник починає крутити зі своєю студенткою, його старий друг намагається розслабитися з тренером по аеробіці, та і дружини не відстають.


Тривалість: 01:47:53
Якість: 720p
Відео:
кодек:
розмір кадру: 1280x690
бітрейт: 5566 кб/с

Аудіо # 1:
мова: українська
переклад: двоголосий закадровий
кодек: 2.0
бітрейт: 192 кб/с

Аудіо # 2:
мова: англійська
переклад: оригінал
кодек: 2.0
бітрейт: 192 кб/с

Субтитри:
мова: англійська
тип: програмні (м'які)
формат: *.srt
Info
General
Unique ID : 204775051520301585086080627803005914556 (0x9A0E3D8824CCDDBEA10E1CE189680DBC)
Complete name : F:\Toloka\2020\Husbands and Wives (1992) 720p.
Format :
Format version : Version 4
File size : 4.58 GiB
Duration : 1 h 47 min
Overall bit rate : 6 071 kb/s
Encoded date : UTC 2020-08-14 08:28:54
Writing application : v6.1.0 ('Old Devil') built on Mar 4 2013 09:10:42
Writing library : libebml v1.3.0 + v1.4.0

Video
ID : 1
Format : AVC
Format/Info : Advanced Video Codec
Format profile : [email protected]
Format settings : CABAC / 9 Ref Frames
Format settings, CABAC : Yes
Format settings, Reference : 9 frames
Codec ID : V_MPEG4/ISO/AVC
Duration : 1 h 47 min
Bit rate : 5 566 kb/s
Width : 1 280 pixels
Height : 690 pixels
Display aspect ratio : 1.85:1
Frame rate mode : Constant
Frame rate : 23.976 (24000/1001) FPS
Color space : YUV
Chroma subsampling : 4:2:0
Bit depth : 8 bits
Scan type : Progressive
Bits/(Pixel*Frame) : 0.263
Stream size : 4.19 GiB (92%)
Writing library : core 159 r2991 1771b55
Encoding settings : cabac=1 / ref=9 / deblock=1:-2:-2 / analyse=0x3:0x113 / me=umh / subme=11 / psy=1 / psy_rd=1.00:0.15 / mixed_ref=1 / me_range=32 / chroma_me=1 / trellis=2 / 8x8dct=1 / cqm=0 / deadzone=21,11 / fast_pskip=0 / chroma_qp_offset=-3 / threads=6 / lookahead_threads=1 / sliced_threads=0 / nr=0 / decimate=1 / interlaced=0 / bluray_compat=0 / constrained_intra=0 / bframes=10 / b_pyramid=2 / b_adapt=2 / b_bias=0 / direct=1 / weightb=1 / open_gop=0 / weightp=2 / keyint=230 / keyint_min=23 / scenecut=40 / intra_refresh=0 / rc_lookahead=40 / rc=crf / mbtree=1 / crf=18.7 / qcomp=0.60 / qpmin=0 / qpmax=69 / qpstep=4 / vbv_maxrate=50000 / vbv_bufsize=62500 / crf_max=0.0 / nal_hrd=none / filler=0 / ip_ratio=1.40 / aq=1:1.00
Language : English
Default : Yes
Forced : No
Duration_Source : General_Duration

Audio #1
ID : 2
Format : AC-3
Format/Info : Audio Coding 3
Commercial name : Dolby Digital
Codec ID : A_AC3
Duration : 1 h 47 min
Bit rate mode : Constant
Bit rate : 192 kb/s
Channel(s) : 2 channels
Channel layout : L R
Sampling rate : 48.0 kHz
Frame rate : 31.250 FPS (1536 SPF)
Compression mode : Lossy
Stream size : 148 MiB (3%)
Title : UKR (Новий)
Language : Ukrainian
Service kind : Complete Main
Default : Yes
Forced : Yes
Duration_Source : General_Duration

Audio #2
ID : 3
Format : AC-3
Format/Info : Audio Coding 3
Commercial name : Dolby Digital
Codec ID : A_AC3
Duration : 1 h 47 min
Bit rate mode : Constant
Bit rate : 192 kb/s
Channel(s) : 2 channels
Channel layout : L R
Sampling rate : 48.0 kHz
Frame rate : 31.250 FPS (1536 SPF)
Compression mode : Lossy
Stream size : 148 MiB (3%)
Title : ENG
Language : English
Service kind : Complete Main
Default : No
Forced : No
Duration_Source : General_Duration

Text
ID : 4
Format : UTF-8
Codec ID : S_TEXT/UTF8
Codec ID/Info : UTF-8 Plain Text
Title : ENG
Language : English
Default : No
Forced : No

Menu
00:00:00.000 : en:Chapter 1
00:07:56.142 : en:Chapter 2
00:09:16.431 : en:Chapter 3
00:14:58.356 : en:Chapter 4
00:19:42.181 : en:Chapter 5
00:23:45.132 : en:Chapter 6
00:27:25.185 : en:Chapter 7
00:31:28.762 : en:Chapter 8
00:34:56.803 : en:Chapter 9
00:39:38.167 : en:Chapter 10
00:43:43.120 : en:Chapter 11
00:48:42.670 : en:Chapter 12
00:54:43.697 : en:Chapter 13
01:00:12.359 : en:Chapter 14
01:02:42.092 : en:Chapter 15
01:07:27.293 : en:Chapter 16
01:10:47.118 : en:Chapter 17
01:14:45.856 : en:Chapter 18
01:19:22.883 : en:Chapter 19
01:25:59.363 : en:Chapter 20
01:30:04.316 : en:Chapter 21
01:34:12.939 : en:Chapter 22
01:38:54.971 : en:Chapter 23
01:45:39.333 : en:Chapter 24
Скріншоти





За доріжку подяка п.: MAKAPOHHIK, robotron005
Особиста подяка пану denixx за надану матеріальну допомогу на підтримку цього і майбутніх релізів.
Джерело:


Срібний реліз (на рейтинг впливає 50% завантаженого)
 Трекер:    Зареєстрований   

Завантажити / скачати фільм українською



відео для новачків



 Зареєстрований:   2020-08-14 11:33
 Розмір:   4.58 GB 
 Оцінка фільму:   10/10 (Голосів: 4)
   
Інші релізи
Ваш часовий пояс: GMT + 2 Години

Нова тема   Відповісти