Гострі Картузи (Сезон 3) / Peaky Blinders (Season 3) (2016) 1080p Ukr/Eng

Нові коментарі

Нова тема   Відповісти
Автор Повідомлення
Цікава ідея 
VIP


З нами з: 25.12.11
Востаннє: 26.11.20
Повідомлень: 728

2020-08-13 22:32  
AVC | 1080p

Гострі Картузи (Сезон 3) / Peaky Blinders (Season 3) (2016) 1080p Ukr/Eng


Гострі Картузи (Сезон 3) / Peaky Blinders (Season 3) (2016) 1080p Ukr/Eng


Якщо вам сподобалося озвучення серіалу,
то ви можете підтримати нас за посиланням
ТИЦЬ


Жанр: драма, історичний, кримінальний, бойовик
Країна: Велика Британія



Кінокомпанія / телеканал: BBC
Режисери: Колм Маккарті, Тім Мілантс, Отто Баферст, Том Гарпер
Актори: Кілліан Мерфі, Сем Нілл, Гелен Маккрорі та інші.

Сюжет:
В Бірмінгем з війни повертаються два члени банди Гострі Козирки Артур Шелбі (Пол Андерсон) і Томас Шелбі (Кілліан Мерфі).
У першому сезоні Томас кардинально змінився після повернення з війни. Він забув, що значить любити, поки в першому сезоні серіалу не з'явилася Грейс що працює на нового начальника поліції-інспектора Кемпбелла. Коли в місті з'являється новий начальник поліції, справи Шелбі ускладнюються. Інспектор Честер Кемпбелл (Сем Нілл) має особливе завдання від Вінстона Черчилля - розслідувати розкрадання кулеметів з казенного військового заводу. Він з усією рішучістю починає зачистку міста від злочинності, від банди «Гострі козирки» – в першу чергу.


Перекладено та озвучено ТО "Цікава Ідея"


Тривалість: 1 серія: ~ 60 хв. (цілком серій: 6)
Перелік серій:

01. Episode #2.1
02. Episode #2.2
03. Episode #2.3
04. Episode #2.4
05. Episode #2.5
06. Episode #2.6
Якість: 1080p
Відео:
кодек:
розмір кадру: 1920 x 1040
бітрейт: ~ 9000 кб/с

Аудіо # 1:
мова: українська | "Цікава Ідея"
переклад: професійний багатоголосий закадровий
кодек: 5.1
бітрейт: 448 кб/с

Аудіо # 2:
мова: англійська
переклад: оригінал
кодек: 5.1
бітрейт: 1509 кб/с
Info
Код:
Format                      :
Format version              : Version 4
File size                   : 4.14 GiB
Duration                    : 55 min 42 s
Overall bit rate            : 10.7 Mb/s
Movie name                  : Гострі картузи / Peaky Blinders - S03E01 (2016) 1080p [Ukr.Eng] [Цікава Ідея]
Encoded date                : UTC 2020-09-04 12:53:40
Writing application         : v6.8.0 ('Theme for Great Cities') 32bit built on Mar  2 2014 21:27:07
Writing library             : libebml v1.3.0 + v1.4.1
Cover                       : Yes
Attachments                 : cover.jpg

Video
ID                          : 1
Format                      : AVC
Format/Info                 : Advanced Video Codec
Format profile              : [email protected]
Format settings             : CABAC / 4 Ref Frames
Format settings, CABAC      : Yes
Format settings, Reference  : 4 frames
Codec ID                    : V_MPEG4/ISO/AVC
Duration                    : 55 min 42 s
Bit rate                    : 8 694 kb/s
Width                       : 1 920 pixels
Height                      : 1 040 pixels
Display aspect ratio        : 1.85:1
Frame rate mode             : Constant
Frame rate                  : 25.000 FPS
Color space                 : YUV
Chroma subsampling          : 4:2:0
Bit depth                   : 8 bits
Scan type                   : Progressive
Bits/(Pixel*Frame)          : 0.174
Stream size                 : 3.30 GiB (80%)
Writing library             : core 148 r2692 64f4e24
Encoding settings           : cabac=1 / ref=4 / deblock=1:-3:-3 / analyse=0x3:0x113 / me=umh / subme=8 / psy=1 / psy_rd=1.00:0.00 / mixed_ref=1 / me_range=16 / chroma_me=1 / trellis=1 / 8x8dct=1 / cqm=0 / deadzone=21,11 / fast_pskip=1 / chroma_qp_offset=-2 / threads=24 / lookahead_threads=4 / sliced_threads=0 / nr=0 / decimate=1 / interlaced=0 / bluray_compat=0 / constrained_intra=0 / bframes=3 / b_pyramid=2 / b_adapt=2 / b_bias=0 / direct=3 / weightb=1 / open_gop=0 / weightp=2 / keyint=250 / keyint_min=25 / scenecut=40 / intra_refresh=0 / rc_lookahead=50 / rc=2pass / mbtree=1 / bitrate=8694 / ratetol=1.0 / qcomp=0.60 / qpmin=0 / qpmax=69 / qpstep=4 / cplxblur=20.0 / qblur=0.5 / ip_ratio=1.40 / aq=3:0.80
Default                     : Yes
Forced                      : No

Audio #1
ID                          : 2
Format                      : AC-3
Format/Info                 : Audio Coding 3
Commercial name             : Dolby Digital
Codec ID                    : A_AC3
Duration                    : 55 min 42 s
Bit rate mode               : Constant
Bit rate                    : 448 kb/s
Channel(s)                  : 6 channels
Channel layout              : L R C LFE Ls Rs
Sampling rate               : 48.0 kHz
Frame rate                  : 31.250 FPS (1536 SPF)
Bit depth                   : 16 bits
Compression mode            : Lossy
Stream size                 : 178 MiB (4%)
Title                       : Цікава Ідея
Language                    : Ukrainian
Service kind                : Complete Main
Default                     : Yes
Forced                      : No

Audio #2
ID                          : 3
Format                      :
Format/Info                 : Digital Theater Systems
Codec ID                    : A_DTS
Duration                    : 55 min 42 s
Bit rate mode               : Constant
Bit rate                    : 1 509 kb/s
Channel(s)                  : 6 channels
Channel layout              : C L R Ls Rs LFE
Sampling rate               : 48.0 kHz
Frame rate                  : 93.750 FPS (512 SPF)
Bit depth                   : 24 bits
Compression mode            : Lossy
Stream size                 : 601 MiB (14%)
Title                       : Original
Language                    : English
Default                     : No
Forced                      : No
Скріншоти



Перекладено та озвучено творчим об'єднанням:
Переклад: Федір Сидорук.



Авторський реліз (завантажувати можна без реєстрації)
 Трекер:    Зареєстрований   

Завантажити / скачати серіал українською



відео для новачків



 Зареєстрований:   2020-09-04 15:58
 Розмір:   24.89 GB 
 Оцінка серіалу:   9.9/10 (Голосів: 17)
   
Max 125 
Новенький


З нами з: 05.12.15
Востаннє: 23.11.20
Повідомлень: 11

2020-08-14 15:32  
О-о-о а перші два є українською ?
Цікава ідея 
VIP


З нами з: 25.12.11
Востаннє: 26.11.20
Повідомлень: 728

2020-08-14 15:34  
Max 125 написано:
О-о-о а перші два є українською ?

Так.

bot 
робот


З нами з: 30.09.07
Востаннє: 26.05.05
Повідомлень: 26374

2020-09-04 15:58  
Тему перенесено з Анонси релізів до форуму Серіали в HD


Цікава ідея

baydala75 
Новенький


З нами з: 17.10.13
Востаннє: 26.11.20
Повідомлень: 4

2020-09-04 16:50  
Добрий вечір! А коли почнеться роздача?
Ваш часовий пояс: GMT + 2 Години

Нова тема   Відповісти