Найкращий друг / The Next Best Thing (2000) 1080p Ukr/Eng

Нові коментарі

Нова тема   Відповісти
Автор Повідомлення
Anonymous 







2020-08-13 22:45  
Найкращий друг / The Next Best Thing (2000) 1080p Ukr/Eng

Найкращий друг / The Next Best Thing (2000) 1080p Ukr/Eng


Жанр: комедія, драма, мелодрама
Країна: США



Кінокомпанія: Lakeshore Entertainment, Paramount Pictures
Режисер: Джон Шлезінгер
Актори: Мадонна, Руперт Еверет, Бенджамін Бретт, Ілляна Даглас, Майкл Вартан, Йозеф Зоммер, Малкольм Стумпф, Лінн Редгрейв, Ніл Патрик Харріс, Марк Веллі

Сюжет:
Роки проходять безповоротно. Всі спроби ув'ядаючої красуні Еббі як досягти успіху в справах, так і знайти ідеального чоловіка марні. А часу на те, щоб завести дитину, залишається все менше і менше. Єдина близька душа, в чиє плече можна поплакати, хто допоможе словом і справою, — це кращий друг дитинства Роберт. Правда, він гей, але заради дружби готовий на багато що.
Вихід з ситуації, що склалася, знайшовся несподівано швидко. Увечері — святкова гулянка з кращим другом, вранці — провал в пам'яті в обох, а через деякий час діагноз - Еббі стане матір'ю. Як вийти з цієї пікантної ситуації? Життя вимагає приймати непрості рішення...


Тривалість: 01:47:25
Якість: 1080p
Відео:
кодек:
розмір кадру: 1920х1040
бітрейт: 9424 кб/с

Аудіо # 1:
мова: українська
переклад: багатоголосий закадровий
кодек: 2.0 (з 5.1)
бітрейт: 192 кб/с

Аудіо # 2:
мова: англійська
переклад: оригінал
кодек: E-AC-3 5.1
бітрейт: 640 кб/с
Info
General
Unique ID : 189334304777831894617606288618960673151 (0x8E7075F0E7249EF7BB6354890E47597F)
Complete name : F:\Toloka\2020\The Next Best Thing (2000) 1080p.
Format :
Format version : Version 4
File size : 7.87 GiB
Duration : 1 h 47 min
Overall bit rate mode : Constant
Overall bit rate : 10.5 Mb/s
Encoded date : UTC 2020-08-13 19:39:43
Writing application : v6.1.0 ('Old Devil') built on Mar 4 2013 09:10:42
Writing library : libebml v1.3.0 + v1.4.0

Video
ID : 1
Format : AVC
Format/Info : Advanced Video Codec
Format profile : [email protected]
Format settings : CABAC / 4 Ref Frames
Format settings, CABAC : Yes
Format settings, Reference : 4 frames
Codec ID : V_MPEG4/ISO/AVC
Duration : 1 h 47 min
Bit rate mode : Constant
Bit rate : 9 424 kb/s
Nominal bit rate : 10 000 kb/s
Width : 1 920 pixels
Height : 1 040 pixels
Display aspect ratio : 1.85:1
Frame rate mode : Constant
Frame rate : 23.976 (24000/1001) FPS
Color space : YUV
Chroma subsampling : 4:2:0
Bit depth : 8 bits
Scan type : Progressive
Bits/(Pixel*Frame) : 0.197
Stream size : 7.09 GiB (90%)
Default : Yes
Forced : No
Color range : Limited
Color primaries : BT.709
Transfer characteristics : BT.709
Matrix coefficients : BT.709
Duration_Source : General_Duration

Audio #1
ID : 2
Format : AC-3
Format/Info : Audio Coding 3
Commercial name : Dolby Digital
Codec ID : A_AC3
Duration : 1 h 47 min
Bit rate mode : Constant
Bit rate : 192 kb/s
Channel(s) : 2 channels
Channel layout : L R
Sampling rate : 48.0 kHz
Frame rate : 31.250 FPS (1536 SPF)
Compression mode : Lossy
Stream size : 148 MiB (2%)
Title : UKR
Language : Ukrainian
Service kind : Complete Main
Default : Yes
Forced : Yes
Duration_Source : General_Duration

Audio #2
ID : 3
Format : E-AC-3
Format/Info : Enhanced AC-3
Commercial name : Dolby Digital Plus
Codec ID : A_EAC3
Duration : 1 h 47 min
Bit rate mode : Constant
Bit rate : 640 kb/s
Channel(s) : 6 channels
Channel layout : L R C LFE Ls Rs
Sampling rate : 48.0 kHz
Frame rate : 31.250 FPS (1536 SPF)
Compression mode : Lossy
Stream size : 493 MiB (6%)
Title : ENG
Language : English
Service kind : Complete Main
Default : No
Forced : No
Duration_Source : General_Duration
Скріншоти







За доріжку подяка п. SweetN
Особиста подяка пану denixx за надану матеріальну допомогу на підтримку цього і майбутніх релізів.
Джерело:


Срібний реліз (на рейтинг впливає 50% завантаженого)
 Трекер:    Зареєстрований   

Завантажити / скачати фільм українською



відео для новачків



 Зареєстрований:   2020-08-13 22:45
 Розмір:   7.87 GB 
 Оцінка фільму:   10/10 (Голосів: 1)
   
Інші релізи
   Найкращий друг / The Next Best Thing (2000) Ukr/Eng SweetN  1 / 0   2.14 GB   2009-03-03 01:16 
Ваш часовий пояс: GMT + 2 Години

Нова тема   Відповісти