Мені це не подобається (Сезон 1, серії 1-4) / I Am Not Okay with This (Season 1, episodes 1-4) (2020) 1080p Ukr/Eng

Нові коментарі

Нова тема   Відповісти
Автор Повідомлення
Цікава ідея 
VIP


З нами з: 26.12.11
Востаннє: 20.09.20
Повідомлень: 663

2020-08-12 17:57  
AVC | 1080p

Мені це не подобається (Сезон 1, серії 1-4) / I Am Not Okay with This (Season 1, episodes 1-4) (2020) 1080p Ukr/Eng


На озвучення серіалу проходить ЗБІР КОШТІВ


Мені це не подобається (Сезон 1, серії 1-4) / I Am Not Okay with This (Season 1, episodes 1-4) (2020) 1080p Ukr/Eng


На озвучення серіалу проходить ЗБІР КОШТІВ


Жанр: комедія, фантастика, драма, фентезі
Країна: США



Кінокомпанія / телеканал: 21 Laps Entertainment, Netflix
Режисери: Джонатан Ентвістл
Актори: Софія Лілліс, Уайатт Олефф, Софія Брайант, Кетлін Роуз Перкінс, Ейдан Вожтаг-Гіссонг, Річард Елліс, Захарі Уільямс, Джессіка Джонс, Тетяна Рішо, Грегг Деніел та інші.

Сюжет:
Сідні намагається впоратися зі шкільним життям, статевим дозріванням і дивними надможливостями.


Перекладено та озвучено ТО "Цікава Ідея" за підтримки сайту UASERIALS.PRO


Український трейлер в нашому озвученні.



Тривалість: 1 серія: ~ 20 хв. (цілком серій: 4/7)
Перелік серій:

01. Dear Diary...
02. The Master of One F**k
03. The Party's Over
04. Stan by Me
05. —
06. —
07. —
Якість: 1080p
Відео:
кодек:
розмір кадру: 1920 x 1080
бітрейт: ~ 7000 кб/с

Аудіо # 1:
мова: українська | "Цікава Ідея"
переклад: професійний багатоголосий закадровий
кодек: 5.1
бітрейт: 448 кб/с

Аудіо # 2:
мова: англійська
переклад: оригінал
кодек: E- 5.1
бітрейт: 768 кб/с
Info
Код:
Format                      :
Format version              : Version 4
File size                   : 1.11 GiB
Duration                    : 19 min 45 s
Overall bit rate mode       : Variable
Overall bit rate            : 8 069 kb/s
Movie name                  : Мені це не подобається / I Am Not Okay With This - S01E01 (2020) 1080p [Ukr.Eng] [Цікава Ідея]
Encoded date                : UTC 2020-08-12 18:30:53
Writing application         : v6.8.0 ('Theme for Great Cities') 32bit built on Mar  2 2014 21:27:07
Writing library             : libebml v1.3.0 + v1.4.1
Cover                       : Yes
Attachments                 : cover.jpg

Video
ID                          : 1
Format                      : AVC
Format/Info                 : Advanced Video Codec
Format profile              : [email protected]
Format settings             : CABAC / 4 Ref Frames
Format settings, CABAC      : Yes
Format settings, Reference  : 4 frames
Codec ID                    : V_MPEG4/ISO/AVC
Duration                    : 19 min 45 s
Bit rate mode               : Variable
Bit rate                    : 6 692 kb/s
Maximum bit rate            : 20.0 Mb/s
Width                       : 1 920 pixels
Height                      : 1 080 pixels
Display aspect ratio        : 16:9
Frame rate mode             : Constant
Frame rate                  : 23.976 (24000/1001) FPS
Color space                 : YUV
Chroma subsampling          : 4:2:0
Bit depth                   : 8 bits
Scan type                   : Progressive
Bits/(Pixel*Frame)          : 0.135
Stream size                 : 946 MiB (83%)
Writing library             : core 148 r2717 0d2410d
Encoding settings           : cabac=1 / ref=4 / deblock=1:0:0 / analyse=0x3:0x111 / me=umh / subme=10 / psy=1 / psy_rd=1.00:0.00 / mixed_ref=1 / me_range=120 / chroma_me=1 / trellis=2 / 8x8dct=1 / cqm=0 / deadzone=21,11 / fast_pskip=1 / chroma_qp_offset=-2 / threads=8 / lookahead_threads=2 / sliced_threads=0 / nr=0 / decimate=1 / interlaced=0 / bluray_compat=0 / stitchable=1 / constrained_intra=0 / bframes=16 / b_pyramid=2 / b_adapt=2 / b_bias=0 / direct=3 / weightb=1 / open_gop=0 / weightp=2 / keyint=240 / keyint_min=121 / scenecut=0 / intra_refresh=0 / rc_lookahead=240 / rc=crf / mbtree=1 / crf=20.0 / qcomp=0.50 / qpmin=6 / qpmax=51 / qpstep=4 / vbv_maxrate=20000 / vbv_bufsize=25000 / crf_max=0.0 / nal_hrd=vbr / filler=0 / ip_ratio=1.40 / aq=1:0.80
Default                     : Yes
Forced                      : No

Audio #1
ID                          : 2
Format                      : AC-3
Format/Info                 : Audio Coding 3
Commercial name             : Dolby Digital
Codec ID                    : A_AC3
Duration                    : 19 min 45 s
Bit rate mode               : Constant
Bit rate                    : 448 kb/s
Channel(s)                  : 6 channels
Channel layout              : L R C LFE Ls Rs
Sampling rate               : 48.0 kHz
Frame rate                  : 31.250 FPS (1536 SPF)
Bit depth                   : 16 bits
Compression mode            : Lossy
Stream size                 : 63.3 MiB (6%)
Title                       : Цікава Ідея
Language                    : Ukrainian
Service kind                : Complete Main
Default                     : Yes
Forced                      : No

Audio #2
ID                          : 3
Format                      : E-AC-3 JOC
Format/Info                 : Enhanced AC-3 with Joint Object Coding
Commercial name             : Dolby Digital Plus with Dolby Atmos
Codec ID                    : A_EAC3
Duration                    : 19 min 45 s
Bit rate mode               : Constant
Bit rate                    : 768 kb/s
Channel(s)                  : 6 channels
Channel layout              : L R C LFE Ls Rs
Sampling rate               : 48.0 kHz
Frame rate                  : 31.250 FPS (1536 SPF)
Compression mode            : Lossy
Stream size                 : 109 MiB (10%)
Title                       : English
Language                    : English
Service kind                : Complete Main
Default                     : No
Forced                      : No
Complexity index            : 16
Number of dynamic objects   : 15
Bed channel count           : 1 channel
Bed channel configuration   : LFE
Скріншоти



Перекладено та озвучено творчим об'єднанням:
Ролі озвучили: Олексій Сафін, Юлія Малахова, Андрій Корзаченко, Ольга Мотрич, Ганна Квочкіна та Олександр Чернов.


Авторський реліз (завантажувати можна без реєстрації)
 Трекер:    Зареєстрований   

Завантажити / скачати серіал українською



відео для новачків



 Зареєстрований:   2020-08-23 14:20
 Розмір:   4.9 GB 
 Оцінка серіалу:   9.8/10 (Голосів: 5)
   
Цікава ідея 
VIP


З нами з: 26.12.11
Востаннє: 20.09.20
Повідомлень: 663

2020-08-12 22:01  
Друзі, ми переклали та озвучили 1-3 серії!
Підтримайте озвучення наступних серій,
реквізити в описі релізу!


Бажаємо всім приємного перегляду!

Aleks_Cat 
Частий відвідувач


З нами з: 14.04.14
Востаннє: 20.09.20
Повідомлень: 42

2020-08-13 20:56  
Керрі на мінімалках? Софія гарна дівчина, шкода, що не вона зіграє Русалоньку в діснеєвській екранізації
don pedro 
Попереджень: 1
Попереджень: 1 


З нами з: 29.06.11
Востаннє: 18.09.20
Повідомлень: 17718

2020-08-13 22:08  
Aleks_Cat написано:
Керрі на мінімалках?

Керрі здорової людини.

GoDLiKeR20 
Свій


З нами з: 21.06.13
Востаннє: 20.09.20
Повідомлень: 89

2020-08-14 16:33  
Поярче за 2 сезон "The End of the F*****g World". На 1-2 вечора порозважитись підійде.
Цікава ідея 
VIP


З нами з: 26.12.11
Востаннє: 20.09.20
Повідомлень: 663

2020-08-23 14:21  
Друзі, ми переклали та озвучили 4 серію!
Підтримайте озвучення наступних серій,
реквізити в описі релізу!


Бажаємо всім приємного перегляду!

DoctorLife 
Свій


З нами з: 19.04.10
Востаннє: 18.09.20
Повідомлень: 55

2020-09-16 01:22  
Ніби десь проскакувало у фейсбуці ЦІ продовження, а тут все нема.
Electroz 
Відео Гуртом - підтримка та поширення
Відео Гуртом - підтримка та поширення


З нами з: 18.09.14
Востаннє: 20.09.20
Повідомлень: 4006

2020-09-16 11:11  
DoctorLife написано:
Ніби десь проскакувало у фейсбуці ЦІ продовження, а тут все нема.

На енеїді викладено 6 серій з їхнім озвученням, а тут лише 4 доступно.
Щось не зрозуміло, чому так.

Ваш часовий пояс: GMT + 2 Години

Нова тема   Відповісти