Канікули: Кінець школі / Recess: School's Out (2001) AVC

Нові коментарі

Нова тема   Відповісти
Автор Повідомлення
sergiyko.5 
VIP


З нами з: 25.02.16
Востаннє: 25.10.20
Повідомлень: 3617

2020-08-12 12:41  
Канікули: Кінець школі / Recess: School's Out (2001) AVC


Канікули: Кінець школі / Recess: School's Out (2001) AVC

Жанр: анімація, комедія, сімейний
Країна: США, Японія
Кінокомпанія: Disney Television Animation
Режисер: Чак Шітц
Актори: Джейсон Девіс, Ешлі Джонсон, Ендрю Лоуренс та інші

Переклад: Юрія Мазура
Режисер: Катерина Брайковська
Музичний керівник: Тетяна Піроженко
Звукорежисер: Всеволод Солнцев
Координатор дубляжу: Ольга Бойова

Ролі дублювали: Андрій Бойко, Максим Кондратюк, Олег Стальчук, Анна Поліщук, Максим Білоногов, Констянтин Чернокрилюк, Єлизевета Зіновенко, Володимир Машук та інші.Фільм дубльовано та зміксовано студією LeDoyen на замовлення компаніії Disney Character Voices International.


Сюжет:
Рік був довгим і важким, і тепер Ті Джей збирається надолужити згаяне - він готовий цілодобово грати зі своїми друзями. Однак його плани руйнуються. З'ясовується, що всі його приятелі роз'їхалися по літніх таборах відпочинку, залишивши його на самоті проводити літо. Але нудьга миттєво випаровується, коли, проїжджаючи на велосипеді повз спорожнілого шкільного двору, Ті Джей бачить яскраве зелене світло. Світло виходить від головної будівлі школи і Ті Джей переконаний, що там відбувається щось надприродне ...




Тривалість: 01:23:22
Якість:

Відео: кодек: розмір кадру: 1024 х 608 бітрейт: 1000 кб/с
Аудіо: мова: українська озвучення: професійне дубльоване кодек: 5.1 бітрейт: 384 кб/с | Le Doyen |
Про файл:
General
Unique ID : 245632505920810225137356527530877525476 (0xB8CB198F8EEEFFCABB78B5CD27BE1DE4)
Complete name : D:\Documents\Torrents\FILMS\Recess.Schools.Out.2001.1080p..
Format :
Format version : Version 4
File size : 827 MiB
Duration : 1 h 23 min
Overall bit rate : 1 387 kb/s
Movie name : Recess Schools Out 2001 by sergiyko
Encoded date : UTC 2020-08-12 10:35:40
Writing application : v47.0.0 ('Black Flag') 64-bit
Writing library : libebml v1.3.10 + v1.5.2
Cover : Yes
Attachments : cover.jpeg

Video
ID : 1
Format : AVC
Format/Info : Advanced Video Codec
Format profile : [email protected]
Format settings : CABAC / 7 Ref Frames
Format settings, CABAC : Yes
Format settings, Reference : 7 frames
Codec ID : V_MPEG4/ISO/AVC
Duration : 1 h 23 min
Bit rate : 1 001 kb/s
Width : 1 024 pixels
Height : 608 pixels
Display aspect ratio : 5:3
Frame rate mode : Constant
Frame rate : 23.976 FPS
Color space : YUV
Chroma subsampling : 4:2:0
Bit depth : 8 bits
Scan type : Progressive
Bits/(Pixel*Frame) : 0.067
Stream size : 597 MiB (72%)
Title : Recess Schools Out 2001
Writing library : core 157 r2969 d4099dd
Encoding settings : cabac=1 / ref=7 / deblock=1:-1:-1 / analyse=0x3:0x133 / me=umh / subme=10 / psy=1 / psy_rd=1.00:0.00 / mixed_ref=1 / me_range=24 / chroma_me=1 / trellis=2 / 8x8dct=1 / cqm=0 / deadzone=21,11 / fast_pskip=1 / chroma_qp_offset=-2 / threads=19 / lookahead_threads=3 / sliced_threads=0 / nr=0 / decimate=1 / interlaced=0 / bluray_compat=0 / constrained_intra=0 / bframes=8 / b_pyramid=2 / b_adapt=2 / b_bias=0 / direct=3 / weightb=1 / open_gop=0 / weightp=2 / keyint=250 / keyint_min=23 / scenecut=40 / intra_refresh=0 / rc_lookahead=60 / rc=crf / mbtree=1 / crf=19.0 / qcomp=0.60 / qpmin=0 / qpmax=69 / qpstep=4 / ip_ratio=1.40 / aq=1:1.00
Language : English
Default : Yes
Forced : No

Audio
ID : 2
Format : AC-3
Format/Info : Audio Coding 3
Commercial name : Dolby Digital
Codec ID : A_AC3
Duration : 1 h 23 min
Bit rate mode : Constant
Bit rate : 384 kb/s
Channel(s) : 6 channels
Channel layout : L R C LFE Ls Rs
Sampling rate : 48.0 kHz
Frame rate : 31.250 FPS (1536 SPF)
Compression mode : Lossy
Stream size : 229 MiB (28%)
Title : DUB 5.1ch | Le Doyen
Language : Ukrainian
Service kind : Complete Main
Default : Yes
Forced : Yes
Скріншоти:


Запис/зведення: sergiyko


Срібний реліз (на рейтинг впливає 50% завантаженого)
 Трекер:    Зареєстрований   

Завантажити / скачати мультфільм українською



відео для новачків



 Зареєстрований:   2020-08-12 12:41
 Розмір:   827 MB 
 Оцінка мультфільму:   9.8/10 (Голосів: 6)
   
Ваш часовий пояс: GMT + 2 Години

Нова тема   Відповісти