Канікули: Кінець школі / Recess: School's Out (2001) 1080p Ukr/Eng | sub Eng

Нові коментарі

Нова тема   Відповісти
Останній раз роздавалося gsalexander (2021-01-31)
Автор Повідомлення
sergiyko.5 
Забанено
Забанено


З нами з: 25.02.16
Востаннє: 29.10.20
Повідомлень: 3648

2020-08-12 11:26  
Канікули: Кінець школі / Recess: School's Out (2001) 1080p Ukr/Eng | sub Eng


Канікули: Кінець школі / Recess: School's Out (2001) 1080p Ukr/Eng | sub Eng

Жанр: анімація, комедія, сімейний
Країна: США, Японія
Кінокомпанія: Disney Television Animation
Режисер: Чак Шітц
Актори: Джейсон Девіс, Ешлі Джонсон, Ендрю Лоуренс та інші

Переклад: Юрія Мазура
Режисер: Катерина Брайковська
Музичний керівник: Тетяна Піроженко
Звукорежисер: Всеволод Солнцев
Координатор дубляжу: Ольга Бойова

Ролі дублювали: Андрій Бойко, Максим Кондратюк, Олег Стальчук, Анна Поліщук, Максим Білоногов, Констянтин Чернокрилюк, Єлизевета Зіновенко, Володимир Машук та інші.Фільм дубльовано та зміксовано студією LeDoyen на замовлення компаніії Disney Character Voices International.


Сюжет:
Рік був довгим і важким, і тепер Ті Джей збирається надолужити згаяне - він готовий цілодобово грати зі своїми друзями. Однак його плани руйнуються. З'ясовується, що всі його приятелі роз'їхалися по літніх таборах відпочинку, залишивши його на самоті проводити літо. Але нудьга миттєво випаровується, коли, проїжджаючи на велосипеді повз спорожнілого шкільного двору, Ті Джей бачить яскраве зелене світло. Світло виходить від головної будівлі школи і Ті Джей переконаний, що там відбувається щось надприродне ...




Тривалість: 01:23:22
Якість:

Відео: кодек: розмір кадру: 1920 х 1080 бітрейт: 10000 кб/с
Аудіо # 1: мова: українська озвучення: професійне дубльоване кодек: 5.1 бітрейт: 384 кб/с | Le Doyen |
Аудіо # 2: мова: англійська озвучення: оригінал кодек: 5.1 бітрейт: 448 кб/с
Субтитри: мова: англійська тип: програмні (м'які) формат: *.srt
Про файл:
General
Unique ID : 50272063160800251313142008937334006542 (0x25D20C1409A73F9D28022C1718DD630E)
Complete name : D:\Documents\Torrents\FILMS\Recess.Schools.Out.2001.1080p..Ukr.Eng.
Format :
Format version : Version 4
File size : 6.21 GiB
Duration : 1 h 23 min
Overall bit rate : 10.7 Mb/s
Movie name : Recess Schools Out 2001 by sergiyko
Encoded date : UTC 2020-08-12 09:22:17
Writing application : v47.0.0 ('Black Flag') 64-bit
Writing library : libebml v1.3.10 + v1.5.2
Cover : Yes
Attachments : cover.jpeg

Video
ID : 1
Format : AVC
Format/Info : Advanced Video Codec
Format profile : [email protected]
Format settings : CABAC / 4 Ref Frames
Format settings, CABAC : Yes
Format settings, Reference : 4 frames
Codec ID : V_MPEG4/ISO/AVC
Duration : 1 h 23 min
Bit rate mode : Constant
Bit rate : 10 000 kb/s
Width : 1 920 pixels
Height : 1 080 pixels
Display aspect ratio : 16:9
Frame rate mode : Constant
Frame rate : 23.976 (24000/1001) FPS
Color space : YUV
Chroma subsampling : 4:2:0
Bit depth : 8 bits
Scan type : Progressive
Bits/(Pixel*Frame) : 0.201
Stream size : 5.72 GiB (92%)
Title : Recess Schools Out 2001
Language : English
Default : Yes
Forced : No
Color range : Limited
Color primaries : BT.709
Transfer characteristics : BT.709
Matrix coefficients : BT.709

Audio #1
ID : 2
Format : AC-3
Format/Info : Audio Coding 3
Commercial name : Dolby Digital
Codec ID : A_AC3
Duration : 1 h 23 min
Bit rate mode : Constant
Bit rate : 384 kb/s
Channel(s) : 6 channels
Channel layout : L R C LFE Ls Rs
Sampling rate : 48.0 kHz
Frame rate : 31.250 FPS (1536 SPF)
Compression mode : Lossy
Stream size : 229 MiB (4%)
Title : DUB 5.1ch | Le Doyen
Language : Ukrainian
Service kind : Complete Main
Default : Yes
Forced : Yes

Audio #2
ID : 3
Format : AC-3
Format/Info : Audio Coding 3
Commercial name : Dolby Digital
Codec ID : A_AC3
Duration : 1 h 23 min
Bit rate mode : Constant
Bit rate : 448 kb/s
Channel(s) : 6 channels
Channel layout : L R C LFE Ls Rs
Sampling rate : 48.0 kHz
Frame rate : 31.250 FPS (1536 SPF)
Compression mode : Lossy
Stream size : 267 MiB (4%)
Title : Original
Language : English
Service kind : Complete Main
Default : No
Forced : No

Text
ID : 4
Format : UTF-8
Codec ID : S_TEXT/UTF8
Codec ID/Info : UTF-8 Plain Text
Duration : 1 h 22 min
Bit rate : 89 b/s
Count of elements : 1289
Stream size : 54.1 KiB (0%)
Language : English
Default : No
Forced : No
Скріншоти:


Запис/зведення: sergiyko


Срібний реліз (на рейтинг впливає 50% завантаженого)
 Трекер:    Зареєстрований   

Завантажити / скачати мультфільм українською



відео для новачків



 Зареєстрований:   2020-08-12 11:26
 Розмір:   6.21 GB 
 Оцінка мультфільму:   9.8/10 (Голосів: 4)
   
Інші релізи
Ваш часовий пояс: GMT + 2 Години

Нова тема   Відповісти