Ігри чемпіонів / Жертвуючи пішаком / Pawn Sacrifice (2014) 1080p 2xUkr/Eng | sub Eng

Нові коментарі

Нова тема   Відповісти
Автор Повідомлення
Anonymous 







2020-08-11 18:30  
Ігри чемпіонів / Жертвуючи пішаком / Pawn Sacrifice (2014) 1080p 2xUkr/Eng | sub Eng

Ігри чемпіонів / Жертвуючи пішаком / Pawn Sacrifice (2014) 1080p 2xUkr/Eng | sub Eng


Жанр: біографічний, драма
Країна: США



Кінокомпанія: Gail Katz Productions, MICA Entertainment, Material Pictures
Режисер: Едвард Цвік
Актори: Тобі Магвайр, Лів Шрайбер, Робін Вайґерт, Лілі Рейб, Пітер Сарсґаард, Майкл Стулбарґ, Софі Нелісс, Евелін Брошу, Шеймас Деві-Фіцпатрік, Лідія Зедел

Сюжет:
У розпал Холодної війни увага всієї планети прикута до «сутички століття» - матчу за звання чемпіона світу з шахів у Рейк'явіку. Бій між абсолютним чемпіоном Борисом Спаським і по-справжньому одержимим грою Боббі Фішером перетворюється на боротьбу за інтелектуальну перевагу двох наддержав. Права на програш немає. Навколо поєдинку вибухає світовий скандал. Спаському доводиться справлятися з безпрецедентним тиском. Геніальний розум Фішера, знервований параноєю, починає охоплювати безумство.


Тривалість: 01:55:43
Якість: 1080p
Відео:
кодек:
розмір кадру: 1920x800
бітрейт: 11.6 мб/с

Аудіо # 1:
мова: українська
переклад: багатоголосий закадровий ААА-sound
кодек: 2.0
бітрейт: 192 кб/с

Аудіо # 2:
мова: українська
переклад: багатоголосий закадровий
кодек: 2.0
бітрейт: 192 кб/с

Аудіо # 3:
мова: англійська
переклад: оригінал
кодек: 5.1
бітрейт: 1536 кб/с

Субтитри # 1-2 (Full, SDH):
мова: англійська
тип: програмні (м'які)
формат: *.srt
Скріншоти


Про файл
General
Complete name : Pawn Sacrifice (2015) 1080p [Ukr, Eng] [Hurtom].
Format :
Format version : Version 4
File size : 10.9 GiB
Duration : 1 h 55 min
Overall bit rate : 13.5 Mb/s
Movie name : Ігри чемпіонів / Жертвуючи пішаком / Pawn Sacrifice
Encoded date : UTC 2020-08-11 14:29:18
Writing application : v30.1.0 ('Forever And More') 64-bit
Writing library : libebml v1.3.6 + v1.4.9
Cover : Yes
Attachments : cover.jpg

Video
ID : 1
Format : AVC
Format/Info : Advanced Video Codec
Format profile : [email protected]
Format settings : CABAC / 5 Ref Frames
Format settings, CABAC : Yes
Format settings, RefFrames : 5 frames
Codec ID : V_MPEG4/ISO/AVC
Duration : 1 h 55 min
Bit rate : 11.6 Mb/s
Width : 1 920 pixels
Height : 800 pixels
Display aspect ratio : 2.40:1
Frame rate mode : Constant
Frame rate : 23.976 (24000/1001) FPS
Color space : YUV
Chroma subsampling : 4:2:0
Bit depth : 8 bits
Scan type : Progressive
Bits/(Pixel*Frame) : 0.315
Stream size : 9.37 GiB (86%)
Title : [email protected]
Writing library : core 142 r2431+42 c69a006 tMod [[email protected] X86_64]
Encoding settings : cabac=1 / ref=5 / deblock=1:-3:-3 / analyse=0x3:0x133 / me=umh / subme=11 / psy=1 / fade_compensate=0.00 / psy_rd=0.90:0.00 / mixed_ref=1 / me_range=32 / chroma_me=1 / trellis=2 / 8x8dct=1 / cqm=0 / deadzone=21,11 / fast_pskip=0 / chroma_qp_offset=-2 / threads=12 / lookahead_threads=2 / sliced_threads=0 / nr=0 / decimate=0 / interlaced=0 / bluray_compat=0 / constrained_intra=0 / fgo=0 / bframes=8 / b_pyramid=2 / b_adapt=2 / b_bias=0 / direct=3 / weightb=1 / open_gop=0 / weightp=2 / keyint=240 / keyint_min=23 / scenecut=40 / intra_refresh=0 / rc_lookahead=60 / rc=crf / mbtree=0 / crf=19.0000 / qcomp=0.60 / qpmin=0:0:0 / qpmax=69:69:69 / qpstep=4 / vbv_maxrate=40000 / vbv_bufsize=30000 / crf_max=0.0 / nal_hrd=none / filler=0 / ip_ratio=1.40 / pb_ratio=1.30 / aq=1:0.90 / aq-sensitivity=10.00 / aq-factor=1.00:1.00:1.00 / aq2=0 / aq3=0
Language : English
Default : Yes
Forced : No

Audio #1
ID : 2
Format : AC-3
Format/Info : Audio Coding 3
Commercial name : Dolby Digital
Codec ID : A_AC3
Duration : 1 h 55 min
Bit rate mode : Constant
Bit rate : 192 kb/s
Channel(s) : 2 channels
Channel layout : L R
Sampling rate : 48.0 kHz
Frame rate : 31.250 FPS (1536 SPF)
Bit depth : 16 bits
Compression mode : Lossy
Stream size : 159 MiB (1%)
Title : 2.0 | 192
Language : Ukrainian
Service kind : Complete Main
Default : Yes
Forced : No

Audio #2
ID : 3
Format : AC-3
Format/Info : Audio Coding 3
Commercial name : Dolby Digital
Codec ID : A_AC3
Duration : 1 h 55 min
Bit rate mode : Constant
Bit rate : 192 kb/s
Channel(s) : 2 channels
Channel layout : L R
Sampling rate : 48.0 kHz
Frame rate : 31.250 FPS (1536 SPF)
Bit depth : 16 bits
Compression mode : Lossy
Stream size : 159 MiB (1%)
Title : 2.0 | 192
Language : Ukrainian
Service kind : Complete Main
Default : No
Forced : No

Audio #3
ID : 4
Format :
Format/Info : Digital Theater Systems
Codec ID : A_DTS
Duration : 1 h 55 min
Bit rate mode : Constant
Bit rate : 1 536 kb/s
Channel(s) : 6 channels
Channel layout : C L R Ls Rs LFE
Sampling rate : 48.0 kHz
Frame rate : 93.750 FPS (512 SPF)
Bit depth : 16 bits
Compression mode : Lossy
Stream size : 1.24 GiB (11%)
Title : 5.1 | 1536
Language : English
Default : No
Forced : No

Text #1
ID : 5
Format : UTF-8
Codec ID : S_TEXT/UTF8
Codec ID/Info : UTF-8 Plain Text
Duration : 1 h 46 min
Bit rate : 60 b/s
Count of elements : 1270
Stream size : 46.8 KiB (0%)
Title : Full
Language : English
Default : Yes
Forced : No

Text #2
ID : 6
Format : UTF-8
Codec ID : S_TEXT/UTF8
Codec ID/Info : UTF-8 Plain Text
Duration : 1 h 46 min
Bit rate : 65 b/s
Count of elements : 1422
Stream size : 50.9 KiB (0%)
Title : SDH
Language : English
Default : No
Forced : No

Menu
00:00:00.000 : en:Chapter 01
00:06:40.024 : en:Chapter 02
00:10:34.841 : en:Chapter 03
00:15:15.538 : en:Chapter 04
00:20:03.535 : en:Chapter 05
00:26:01.851 : en:Chapter 06
00:31:15.123 : en:Chapter 07
00:38:54.038 : en:Chapter 08
00:45:24.179 : en:Chapter 09
00:51:00.139 : en:Chapter 10
00:55:47.801 : en:Chapter 11
00:59:35.612 : en:Chapter 12
01:07:02.434 : en:Chapter 13
01:10:49.536 : en:Chapter 14
01:18:07.807 : en:Chapter 15
01:22:53.676 : en:Chapter 16
01:29:49.884 : en:Chapter 17
01:35:09.494 : en:Chapter 18
01:39:16.951 : en:Chapter 19
01:48:15.113 : en:Chapter 20
01:55:43.685 : en:Chapter 21
Джерело:
За першу доріжку дякую пану Vasua95
За запис з Інтера дякую пану Bohdan237
Особиста оцінка: 8 - мені сподобалося


 Трекер:    Зареєстрований   

Завантажити / скачати фільм українською



відео для новачків



 Зареєстрований:   2020-08-11 18:30
 Розмір:   10.92 GB 
 Оцінка фільму:   9.5/10 (Голосів: 4)
   
Custo 12 
Свій


З нами з: 08.11.16
Востаннє: 21.09.20
Повідомлень: 148

2020-08-15 14:30  
Кіно про дуже хвору людину. Не раджу дивитися. Нецікаво.
waldi-hurtom 
VIP


З нами з: 07.10.12
Востаннє: 22.09.20
Повідомлень: 1176

2020-08-22 00:52  
Цікавий фільм для любителів шахів. Але не розумію - навіщо плодити стільки релізів? Був 720 вже 5 років, для цього жанру більш ніж достатньо. Передивлятися щоб оцінити переваги 1080 не буду. Не Аватар.
Ваш часовий пояс: GMT + 2 Години

Нова тема   Відповісти