Ігри чемпіонів / Жертвуючи пішаком / Pawn Sacrifice (2014) Remux 1080p 2xUkr/Eng | sub Eng/Spa

Нові коментарі

Нова тема   Відповісти
Автор Повідомлення
Anonymous 







2020-08-11 18:30  
Ігри чемпіонів / Жертвуючи пішаком / Pawn Sacrifice (2014) Remux 1080p 2xUkr/Eng | sub Eng/Spa

Ігри чемпіонів / Жертвуючи пішаком / Pawn Sacrifice (2014) Remux 1080p 2xUkr/Eng | sub Eng/Spa


Жанр: біографічний, драма
Країна: США



Кінокомпанія: Gail Katz Productions, MICA Entertainment, Material Pictures
Режисер: Едвард Цвік
Актори: Тобі Магвайр, Лів Шрайбер, Робін Вайґерт, Лілі Рейб, Пітер Сарсґаард, Майкл Стулбарґ, Софі Нелісс, Евелін Брошу, Шеймас Деві-Фіцпатрік, Лідія Зедел

Сюжет:
У розпал Холодної війни увага всієї планети прикута до «сутички століття» - матчу за звання чемпіона світу з шахів у Рейк'явіку. Бій між абсолютним чемпіоном Борисом Спаським і по-справжньому одержимим грою Боббі Фішером перетворюється на боротьбу за інтелектуальну перевагу двох наддержав. Права на програш немає. Навколо поєдинку вибухає світовий скандал. Спаському доводиться справлятися з безпрецедентним тиском. Геніальний розум Фішера, знервований параноєю, починає охоплювати безумство.


Тривалість: 01:55:44
Якість: Remux 1080p
Відео:
кодек:
розмір кадру: 1920x1080
бітрейт: 31.3 мб/с

Аудіо # 1:
мова: українська
переклад: багатоголосий закадровий ААА-sound
кодек: 2.0
бітрейт: 192 кб/с

Аудіо # 2:
мова: українська
переклад: багатоголосий закадровий
кодек: 2.0
бітрейт: 192 кб/с

Аудіо # 3:
мова: англійська
переклад: оригінал
кодек: 5.1
бітрейт: 640 кб/с

Аудіо # 4:
мова: англійська
переклад: оригінал
кодек: -HD Master 5.1
бітрейт: 3363 кб/с

Субтитри:
мова: англійська
тип: програмні (м'які)
формат: *.pgs

Субтитри:
мова: іспанська
тип: програмні (м'які)
формат: *.pgs
Скріншоти


Про файл
General
Complete name : Pawn Sacrifice (2014) Remux 1080p [Ukr, Eng] [Hurtom].
Format :
Format version : Version 4
File size : 28.8 GiB
Duration : 1 h 55 min
Overall bit rate mode : Variable
Overall bit rate : 35.7 Mb/s
Movie name : Ігри чемпіонів / Жертвуючи пішаком / Pawn Sacrifice (2014)
Encoded date : UTC 2020-08-10 15:17:23
Writing application : v30.1.0 ('Forever And More') 64-bit
Writing library : libebml v1.3.6 + v1.4.9
Cover : Yes
Attachments : cover.jpg

Video
ID : 1
Format : AVC
Format/Info : Advanced Video Codec
Format profile : [email protected]
Format settings : CABAC / 4 Ref Frames
Format settings, CABAC : Yes
Format settings, RefFrames : 4 frames
Codec ID : V_MPEG4/ISO/AVC
Duration : 1 h 55 min
Bit rate mode : Variable
Bit rate : 31.3 Mb/s
Maximum bit rate : 35.0 Mb/s
Width : 1 920 pixels
Height : 1 080 pixels
Display aspect ratio : 16:9
Frame rate mode : Constant
Frame rate : 23.976 (24000/1001) FPS
Color space : YUV
Chroma subsampling : 4:2:0
Bit depth : 8 bits
Scan type : Progressive
Bits/(Pixel*Frame) : 0.629
Stream size : 25.3 GiB (88%)
Default : Yes
Forced : No

Audio #1
ID : 2
Format : AC-3
Format/Info : Audio Coding 3
Commercial name : Dolby Digital
Codec ID : A_AC3
Duration : 1 h 55 min
Bit rate mode : Constant
Bit rate : 192 kb/s
Channel(s) : 2 channels
Channel layout : L R
Sampling rate : 48.0 kHz
Frame rate : 31.250 FPS (1536 SPF)
Bit depth : 16 bits
Compression mode : Lossy
Stream size : 159 MiB (1%)
Title : 2.0 | 192
Language : Ukrainian
Service kind : Complete Main
Default : Yes
Forced : No

Audio #2
ID : 3
Format : AC-3
Format/Info : Audio Coding 3
Commercial name : Dolby Digital
Codec ID : A_AC3
Duration : 1 h 55 min
Bit rate mode : Constant
Bit rate : 192 kb/s
Channel(s) : 2 channels
Channel layout : L R
Sampling rate : 48.0 kHz
Frame rate : 31.250 FPS (1536 SPF)
Bit depth : 16 bits
Compression mode : Lossy
Stream size : 159 MiB (1%)
Title : 2.0 | 192
Language : Ukrainian
Service kind : Complete Main
Default : No
Forced : No

Audio #3
ID : 4
Format : AC-3
Format/Info : Audio Coding 3
Commercial name : Dolby Digital
Codec ID : A_AC3
Duration : 1 h 55 min
Bit rate mode : Constant
Bit rate : 640 kb/s
Channel(s) : 6 channels
Channel layout : L R C LFE Ls Rs
Sampling rate : 48.0 kHz
Frame rate : 31.250 FPS (1536 SPF)
Bit depth : 16 bits
Compression mode : Lossy
Stream size : 530 MiB (2%)
Title : 5.1 | 640
Language : English
Service kind : Complete Main
Default : No
Forced : No

Audio #4
ID : 5
Format : XLL
Format/Info : Digital Theater Systems
Commercial name : -HD Master Audio
Codec ID : A_DTS
Duration : 1 h 55 min
Bit rate mode : Variable
Bit rate : 3 363 kb/s
Channel(s) : 6 channels
Channel layout : C L R Ls Rs LFE
Sampling rate : 48.0 kHz
Frame rate : 93.750 FPS (512 SPF)
Bit depth : 24 bits
Compression mode : Lossless
Stream size : 2.72 GiB (9%)
Title : -HD MA 5.1 | 3363
Language : English
Default : No
Forced : No

Text #1
ID : 6
Format : PGS
Muxing mode : zlib
Codec ID : S_HDMV/PGS
Codec ID/Info : Picture based subtitle format used on BDs/HD-DVDs
Duration : 1 h 46 min
Bit rate : 42.3 kb/s
Count of elements : 2844
Stream size : 32.3 MiB (0%)
Language : English
Default : No
Forced : No

Text #2
ID : 7
Format : PGS
Muxing mode : zlib
Codec ID : S_HDMV/PGS
Codec ID/Info : Picture based subtitle format used on BDs/HD-DVDs
Duration : 1 h 54 min
Bit rate : 33.2 kb/s
Count of elements : 2550
Stream size : 27.2 MiB (0%)
Language : Spanish
Default : No
Forced : No
Джерело:
За першу доріжку дякую пану Vasua95
За запис з Інтера дякую пану Bohdan237
Особиста оцінка: 8 - мені сподобалося


Золотий реліз (завантажене не впливає на рейтинг)
 Трекер:    Зареєстрований   

Завантажити / скачати фільм українською



відео для новачків



 Зареєстрований:   2020-08-11 18:30
 Розмір:   28.85 GB 
 Оцінка фільму:   9.6/10 (Голосів: 5)
   
Ваш часовий пояс: GMT + 2 Години

Нова тема   Відповісти