Алігатор / Alligator (1980) 720p Ukr/Eng

Нові коментарі

Нова тема   Відповісти
Автор Повідомлення
Anonymous 







2020-08-10 14:43  
Алігатор / Alligator (1980) 720p Ukr/Eng

Алігатор / Alligator (1980) 720p Ukr/Eng


Жанр: жахи, триллер
Країна: США



Кінокомпанія: Alligator Inc.
Режисер: Л'юїс Тіг / Lewis Teague
Актори: Роберт Фостер / Robert Forster, Робін Рікер / Robin Riker, Майкл Гаццо / Michael V. Gazzo, Дін Джаггер / Dean Jagger (Vanishing Point 1971), Сідні Ласік /Sydney Lassick, Джек Картер / Jack Carter, Перрі Ленг / Perry Lang, Генрі Сільва / Henry Silva, Сю Лайон / Sue Lyon (Лоліта 1962)

Сюжет:
Гігантський алігатор тероризує Чикаго. Маленького алігатора Рамона змили в туалеті ще маленьким. Завдяки відходам із біолабораторії він виріс у гігантського монстра, який починає виходити з каналізації та їсти людей.


Тривалість: 01:27:04
Якість: 720p
Відео:
кодек:
розмір кадру: 1280х716
бітрейт: 5484 кб/с

Аудіо # 1:
мова: українська
переклад: двоголосий закадровий
кодек: 2.0
бітрейт: 192 кб/с

Аудіо # 2:
мова: англійська
переклад: оригінал
кодек: 5.1
бітрейт: 448 кб/с
Info
General
Unique ID : 242534421389234162215691044791164467442 (0xB6766E334514DA05BCE631A4ED79F8F2)
Complete name : F:\Toloka\2020\Alligator (1980) 720p.
Format :
Format version : Version 4
File size : 3.72 GiB
Duration : 1 h 27 min
Overall bit rate : 6 124 kb/s
Encoded date : UTC 2020-08-10 11:38:47
Writing application : v6.1.0 ('Old Devil') built on Mar 4 2013 09:10:42
Writing library : libebml v1.3.0 + v1.4.0

Video
ID : 1
Format : AVC
Format/Info : Advanced Video Codec
Format profile : [email protected]
Format settings : CABAC / 9 Ref Frames
Format settings, CABAC : Yes
Format settings, Reference : 9 frames
Codec ID : V_MPEG4/ISO/AVC
Duration : 1 h 27 min
Bit rate : 5 484 kb/s
Width : 1 280 pixels
Height : 716 pixels
Display aspect ratio : 16:9
Frame rate mode : Constant
Frame rate : 25.000 FPS
Color space : YUV
Chroma subsampling : 4:2:0
Bit depth : 8 bits
Scan type : Progressive
Bits/(Pixel*Frame) : 0.239
Stream size : 3.26 GiB (88%)
Writing library : core 152 r2851 ba24899
Encoding settings : cabac=1 / ref=9 / deblock=1:-3:-3 / analyse=0x3:0x133 / me=umh / subme=10 / psy=1 / psy_rd=1.00:0.10 / mixed_ref=1 / me_range=32 / chroma_me=1 / trellis=2 / 8x8dct=1 / cqm=0 / deadzone=21,11 / fast_pskip=0 / chroma_qp_offset=-3 / threads=3 / lookahead_threads=1 / sliced_threads=0 / nr=0 / decimate=1 / interlaced=0 / bluray_compat=0 / constrained_intra=0 / bframes=10 / b_pyramid=2 / b_adapt=2 / b_bias=0 / direct=3 / weightb=1 / open_gop=0 / weightp=2 / keyint=250 / keyint_min=25 / scenecut=40 / intra_refresh=0 / rc_lookahead=40 / rc=2pass / mbtree=1 / bitrate=5484 / ratetol=1.0 / qcomp=0.60 / qpmin=10 / qpmax=51 / qpstep=4 / cplxblur=20.0 / qblur=0.5 / vbv_maxrate=50000 / vbv_bufsize=62500 / nal_hrd=none / filler=0 / ip_ratio=1.40 / aq=1:1.00
Default : Yes
Forced : No
Duration_Source : General_Duration

Audio #1
ID : 2
Format : AC-3
Format/Info : Audio Coding 3
Commercial name : Dolby Digital
Codec ID : A_AC3
Duration : 1 h 27 min
Bit rate mode : Constant
Bit rate : 192 kb/s
Channel(s) : 2 channels
Channel layout : L R
Sampling rate : 48.0 kHz
Frame rate : 31.250 FPS (1536 SPF)
Compression mode : Lossy
Stream size : 120 MiB (3%)
Title : UKR (2+2)
Language : Ukrainian
Service kind : Complete Main
Default : Yes
Forced : Yes
Duration_Source : General_Duration

Audio #2
ID : 3
Format : AC-3
Format/Info : Audio Coding 3
Commercial name : Dolby Digital
Codec ID : A_AC3
Duration : 1 h 27 min
Bit rate mode : Constant
Bit rate : 448 kb/s
Channel(s) : 6 channels
Channel layout : L R C LFE Ls Rs
Sampling rate : 48.0 kHz
Frame rate : 31.250 FPS (1536 SPF)
Compression mode : Lossy
Stream size : 279 MiB (7%)
Title : ENG
Language : English
Service kind : Complete Main
Default : No
Forced : No
Duration_Source : General_Duration

Menu
00:00:00.000 : en:Chapter 1
00:13:54.280 : en:Chapter 2
00:30:38.400 : en:Chapter 3
00:47:44.280 : en:Chapter 4
01:06:25.480 : en:Chapter 5
Скріншоти









За доріжку подяка п. gig_Panas
Особиста подяка пану denixx за надану матеріальну допомогу на підтримку цього і майбутніх релізів.
Джерело:


Срібний реліз (на рейтинг впливає 50% завантаженого)
 Трекер:    Зареєстрований   

Завантажити / скачати фільм українською



відео для новачків



 Зареєстрований:   2020-08-10 14:43
 Розмір:   3.72 GB 
 Оцінка фільму:   7.8/10 (Голосів: 4)
   
Інші релізи
   Алігатор / Alligator (1980) PDTVRip Ukr/Eng muestro  1 / 0   1.44 GB   2011-05-19 10:53 
Ваш часовий пояс: GMT + 2 Години

Нова тема   Відповісти