Розумна селянська донька / Die kluge Bauerntochter (2009) 1080p Ukr/Ger

Нові коментарі

Нова тема   Відповісти
Автор Повідомлення
Anonymous 







2020-08-10 00:50  
Розумна селянська донька / Die kluge Bauerntochter (2009) 1080p Ukr/Ger

Розумна селянська донька / Die kluge Bauerntochter (2009) 1080p Ukr/Ger
DVD



Жанр: сімейний, казка
Країна: Німеччина



Кінокомпанія: Studio-TV-Film GmbH, Mitteldeutscher Rundfunk (MDR)
Режисер: Вольфґанґ Айслер
Актори: Анна Марія Мюе, Максім Мімет, Соньї Меллес, Рольф Каніс, Катаріна Хайєр, Даніель Зільманн, Фальк Рокстрох, Забіне Краузе, Марі Ґрубер

Сюжет:
За мотивами казки братів Грімм. Одного разу король подарував бідному селянинові і його дочці ділянку родючої землі. Обробляючи її, селяни викопали з неї золоту ступку. На знак подяки батько вирішив подарувати її королю, але дочка попередила його, що він може зажадати до ступці ще й товкач. Батько не дослухався поради, пішов до короля з однією тільки ступкою і потрапив у темницю. Його дочка відправилася в палац, щоб виручити батька з біди. Своєю мудрістю вона так зачарувала короля, що той пообіцяв одружитися з нею, якщо дівчина розгадає його загадку ...


Тривалість: 00:59:00
Якість:
Відео:
кодек:
розмір кадру: 1920 х 1080
бітрейт: 6499 кб/с

Аудіо # 1:
мова: українська
переклад: професійний дубльований
кодек: 2.0
бітрейт: 192 кб/с

Аудіо # 2:
мова: німецька
переклад: оригінал
кодек: 2.0
бітрейт: 192 кб/с

Джерело озвучення:

За запис з ТБ дякуємо пану РОМЕО
Звук взято з релізу
Info
Код:
General
Unique ID                                : 1248100549064867411453661929273486532 (0xF0601BA9BF3F485A3790F47BE2ECC4)
Complete name                            : Die kluge Bauerntochter (2009) 1080p [Ukr_Ger] [Hurtom].
Format                                   :
Format version                           : Version 4
File size                                : 2.84 GiB
Duration                                 : 59 min 0 s
Overall bit rate mode                    : Variable
Overall bit rate                         : 6 886 kb/s
Movie name                               : Розумна селянська донька (2009)
Encoded date                             : UTC 2020-08-09 21:02:48
Writing application                      : v49.0.0 ('Sick Of Losing Soulmates') 64-bit
Writing library                          : libebml v1.4.0 + v1.6.1
Cover                                    : Yes
Attachments                              : cover.jpg

Video
ID                                       : 1
Format                                   : AVC
Format/Info                              : Advanced Video Codec
Format profile                           : [email protected]
Format settings                          : CABAC / 2 Ref Frames
Format settings, CABAC                   : Yes
Format settings, Reference frames        : 2 frames
Codec ID                                 : V_MPEG4/ISO/AVC
Duration                                 : 59 min 0 s
Bit rate mode                            : Variable
Bit rate                                 : 6 499 kb/s
Maximum bit rate                         : 8 200 kb/s
Width                                    : 1 920 pixels
Height                                   : 1 080 pixels
Display aspect ratio                     : 16:9
Frame rate mode                          : Constant
Frame rate                               : 50.000 FPS
Color space                              : YUV
Chroma subsampling                       : 4:2:0
Bit depth                                : 8 bits
Scan type                                : Progressive
Bits/(Pixel*Frame)                       : 0.063
Stream size                              : 2.68 GiB (94%)
Language                                 : German
Default                                  : Yes
Forced                                   : No

Audio #1
ID                                       : 2
Format                                   : AC-3
Format/Info                              : Audio Coding 3
Commercial name                          : Dolby Digital
Codec ID                                 : A_AC3
Duration                                 : 59 min 0 s
Bit rate mode                            : Constant
Bit rate                                 : 192 kb/s
Channel(s)                               : 2 channels
Channel layout                           : L R
Sampling rate                            : 48.0 kHz
Frame rate                               : 31.250 FPS (1536 SPF)
Compression mode                         : Lossy
Stream size                              : 81.0 MiB (3%)
Language                                 : Ukrainian
Service kind                             : Complete Main
Default                                  : Yes
Forced                                   : Yes

Audio #2
ID                                       : 3
Format                                   : LC
Format/Info                              : Advanced Audio Codec Low Complexity
Codec ID                                 : A_AAC-2
Duration                                 : 59 min 0 s
Bit rate                                 : 192 kb/s
Channel(s)                               : 2 channels
Channel layout                           : L R
Sampling rate                            : 48.0 kHz
Frame rate                               : 46.875 FPS (1024 SPF)
Compression mode                         : Lossy
Stream size                              : 79.7 MiB (3%)
Language                                 : German
Default                                  : No
Forced                                   : No

Скріншоти





Джерело:


 Трекер:    Зареєстрований   

Завантажити / скачати фільм українською



відео для новачків



 Зареєстрований:   2020-08-10 00:50
 Розмір:   2.84 GB 
 Оцінка фільму:   10/10 (Голосів: 2)
   
Інші релізи
Ваш часовий пояс: GMT + 2 Години

Нова тема   Відповісти