Формула 1. Сезон 2020. Етап 5. Гран-Прі 70 річчя. Гонка (09.08.2020) IPTV 1080p 2xUkr/Eng/Int

Нові коментарі

Нова тема   Відповісти
Автор Повідомлення
sergiyko.5 
VIP


З нами з: 25.02.16
Востаннє: 28.10.20
Повідомлень: 3638

2020-08-09 18:00  
Формула 1. Сезон 2020. Етап 5. Гран-Прі 70 річчя. Гонка (09.08.2020) IPTV 1080p 2xUkr/Eng/Int


Формула 1. Сезон 2020. Етап 5. Гран-Прі 70 річчя. Гонка (09.08.2020) IPTV 1080p 2xUkr/Eng/Int

Жанр: Перегони Формули 1
Країна: Велика Британія
Телеканал: F1TV
Коментар: Максим Подзігун, Роман Гончаров, анлійською

Опис:
Гонка п'ятого етапу Гран-Прі 70 річчя 2020 року.


Якість: IPTV

Відео: кодек: розмір кадру: 1920 х 1080 бітрейт: 5500 кб/с 25 кад/с
Аудіо 1: мова: українська кодек: 2.0 бітрейт: 192 кб/с
Аудіо 2: мова: українська кодек: 2.0 бітрейт: 192 кб/с
Аудіо 3: мова: англійська кодек: 2.0 бітрейт: 192 кб/с
Аудіо 4: мова: - кодек: 2.0 бітрейт: 192 кб/с
Тривалість:
01:59:00
Про файл:
General
Unique ID : 112798699817822602198714674783900777340 (0x54DC3D4722FB975E517F3F5B09EDBB7C)
Complete name : D:\Documents\Torrents\SPORT\Formula 1\F1.2020.05.GP70th_Anniversary.Race.1080p.IPTV.Ukr.Eng.Int.
Format :
Format version : Version 4
File size : 5.21 GiB
Duration : 1 h 59 min
Overall bit rate mode : Constant
Overall bit rate : 6 270 kb/s
Encoded date : UTC 2020-08-09 16:15:05
Writing application : v47.0.0 ('Black Flag') 64-bit
Writing library : libebml v1.3.10 + v1.5.2

Video
ID : 1
Format : AVC
Format/Info : Advanced Video Codec
Format profile : [email protected]
Format settings : CABAC / 4 Ref Frames
Format settings, CABAC : Yes
Format settings, Reference : 4 frames
Format settings, GOP : M=4, N=50
Codec ID : V_MPEG4/ISO/AVC
Duration : 1 h 59 min
Bit rate mode : Constant
Bit rate : 5 500 kb/s
Width : 1 920 pixels
Height : 1 080 pixels
Display aspect ratio : 16:9
Frame rate mode : Constant
Frame rate : 25.000 FPS
Color space : YUV
Chroma subsampling : 4:2:0
Bit depth : 8 bits
Scan type : Progressive
Bits/(Pixel*Frame) : 0.106
Stream size : 4.57 GiB (88%)
Language : English
Default : Yes
Forced : No

Audio #1
ID : 2
Format : AC-3
Format/Info : Audio Coding 3
Commercial name : Dolby Digital
Codec ID : A_AC3
Duration : 1 h 59 min
Bit rate mode : Constant
Bit rate : 192 kb/s
Channel(s) : 2 channels
Channel layout : L R
Sampling rate : 48.0 kHz
Frame rate : 31.250 FPS (1536 SPF)
Compression mode : Lossy
Delay relative to video : 24 ms
Stream size : 163 MiB (3%)
Title : Максим Подзігун
Language : Ukrainian
Service kind : Complete Main
Default : Yes
Forced : Yes

Audio #2
ID : 3
Format : AC-3
Format/Info : Audio Coding 3
Commercial name : Dolby Digital
Codec ID : A_AC3
Duration : 1 h 59 min
Bit rate mode : Constant
Bit rate : 192 kb/s
Channel(s) : 2 channels
Channel layout : L R
Sampling rate : 48.0 kHz
Frame rate : 31.250 FPS (1536 SPF)
Compression mode : Lossy
Delay relative to video : 24 ms
Stream size : 163 MiB (3%)
Title : Роман Гончаров
Language : Ukrainian
Service kind : Complete Main
Default : No
Forced : No

Audio #3
ID : 4
Format : AC-3
Format/Info : Audio Coding 3
Commercial name : Dolby Digital
Codec ID : A_AC3
Duration : 1 h 59 min
Bit rate mode : Constant
Bit rate : 192 kb/s
Channel(s) : 2 channels
Channel layout : L R
Sampling rate : 48.0 kHz
Frame rate : 31.250 FPS (1536 SPF)
Compression mode : Lossy
Delay relative to video : 24 ms
Stream size : 163 MiB (3%)
Title : Sky Sports F1
Language : English
Service kind : Complete Main
Default : No
Forced : No

Audio #4
ID : 5
Format : AC-3
Format/Info : Audio Coding 3
Commercial name : Dolby Digital
Codec ID : A_AC3
Duration : 1 h 59 min
Bit rate mode : Constant
Bit rate : 192 kb/s
Channel(s) : 2 channels
Channel layout : L R
Sampling rate : 48.0 kHz
Frame rate : 31.250 FPS (1536 SPF)
Compression mode : Lossy
Delay relative to video : 24 ms
Stream size : 163 MiB (3%)
Title : Int
Service kind : Complete Main
Default : No
Forced : No
Скріншоти:


Запис/зведення: sergiyko



Золотий реліз (завантажене не впливає на рейтинг)
 Трекер:    Зареєстрований   

Завантажити / скачати торрент



відео для новачків



 Зареєстрований:   2020-08-09 18:20
 Розмір:   5.21 GB 
 Оцінка:   10/10 (Голосів: 41)
   
scanter 
Новенький


З нами з: 25.11.13
Востаннє: 27.10.20
Повідомлень: 3

2020-08-15 12:31  
А де Максим Подзігун веде трансляції? І що взагалі трапилось з ф1юа?
Dron1994 
Частий відвідувач


З нами з: 07.07.14
Востаннє: 27.10.20
Повідомлень: 34

2020-08-15 16:36  
scanter
Максим переїхав на Patreon і веде свої трансляції там на платній основі, а з f1ua все впорядку. Роман веде трансляції і у нього виходить доволі непогано.

scanter 
Новенький


З нами з: 25.11.13
Востаннє: 27.10.20
Повідомлень: 3

2020-08-15 17:52  
Dron1994 написано:
Максим переїхав на Patreon

Дякую... десь так і думав. Бо дивився останні тільки з Ромою, а куди подівся Макс не було зрозуміло.

Ваш часовий пояс: GMT + 2 Години

Нова тема   Відповісти