Зоотрополіс / Zootopia (2016) UHD Remux 4K 2160p HDR H.265 Ukr/Eng | Sub Ukr/Eng

Нові коментарі

Нова тема   Відповісти
Автор Повідомлення
RoMeL 
Відео Гуртом - підтримка та поширення
Відео Гуртом - підтримка та поширення


З нами з: 09.07.08
Востаннє: 01.03.21
Повідомлень: 328

2020-08-08 19:54  
Зоотрополіс / Zootopia (2016) UHD Remux 4K 2160p HDR H.265 Ukr/Eng | Sub Ukr/Eng



Жанр: анімація, екшн, пригодницький
Країна: США



Кінокомпанія: Walt Disney Pictures, Walt Disney Animation Studios
Режисери: Байрон Говард, Річ Мур, Джаред Буш
Ролі озвучують: Джінніфер Гудвін, Джейсон Бейтмен, Ідріс Ельба, Дженні Слейт, Нейт Торренс, Бонні Гант, Дон Лейк, Томмі Чонґ, Дж.К. Сіммонс, Октавія Спенсер, Алан Тьюдік, Шакіра

Сюжет:
Ласкаво просимо в Зоотрополіс - сучасне місто, населене найрізноманітнішими тваринами, від величезних слонів до крихітних мишок. Зоотрополіс розділений на райони, що повністю повторюють природне місце існування різних жителів. У цьому місті з'являється новий офіцер поліції, життєрадісна зайчиха Джуді Гоппс, яка з перших днів роботи розуміє, як складно бути маленькою і пухнастою серед великих і сильних поліцейських. Джуді хапається за першу ж можливість проявити себе, не дивлячись на те, що її партнером буде балакучий хитрий лис Нік Вайлд. Удвох їм доведеться розкрити складну справа, від якого буде залежати доля всіх мешканців Зоотрополіса.


Тривалість: 01:48:32
Якість: Remux 4K 2160p HDR H.265
Відео:
кодек: H.265 (HEVC)
розмір кадру: 3840 х 2160
бітрейт: 44,8 Мбіт/сек
бітова глибина: 10 біт
кольоровий простір: BT.2020 (HDR)

Увага! Перед завантаженням переконайтесь, що ваш пристрій відтворення (та/або ПЗ) підтримує H.265 (HEVC)

Аудіо # 1:
мова: українська
переклад: професійний дубльований
кодек: -HD MA 5.1
бітрейт: 3816 кб/с

Аудіо # 2:
мова: українська
переклад: професійний дубльований
кодек:
бітрейт: 1 509 кб/с

Аудіо # 3:
мова: англійська
переклад: оригінал
кодек: TrueHD Atmos 7.1
бітрейт: 7170 кб/с

Аудіо # 4:
мова: англійська
переклад: оригінал
кодек: AC-3 5.1
бітрейт: 640 кб/с

Субтитри # 1:
мова: українська
тип: пререндерні
формат: *.pgs

Субтитри # 2-3:
мова: англійська (Full, SDH)
тип: пререндерні
формат: *.pgs
Info
Код:
General
Unique ID                                : 151969386869268411475124482013220692122 (0x72543D4177157C3A898439C1D85DE09A)
Complete name                            : /Volumes/Download/Movies/Zootopia.2016.Remux.2160p.HDR.[Ukr.Eng].
Format                                   :
Format version                           : Version 4
File size                                : 44.0 GiB
Duration                                 : 1h 48mn
Overall bit rate mode                    : Variable
Overall bit rate                         : 58.1 Mbps
Movie name                               : Zootopia.2016.Remux.2160p.HDR.[Ukr.Eng]
Encoded date                             : UTC 2020-08-07 20:05:20
Writing application                      : v47.0.0 ('Black Flag') 64-bit
Writing library                          : libebml v1.3.10 + v1.5.2
Cover                                    : Yes
Attachments                              : Cover.jpg

Video
ID                                       : 1
Format                                   : HEVC
Format/Info                              : High Efficiency Video Coding
Format profile                           : Main [email protected]@High
HDR format                               : SMPTE ST 2086, HDR10 compatible
Codec ID                                 : V_MPEGH/ISO/HEVC
Duration                                 : 1h 48mn
Bit rate                                 : 44.8 Mbps
Width                                    : 3 840 pixels
Height                                   : 2 160 pixels
Display aspect ratio                     : 16:9
Frame rate mode                          : Constant
Frame rate                               : 23.976 (24000/1001) fps
Color space                              : YUV
Chroma subsampling                       : 4:2:0 (Type 2)
Bit depth                                : 10 bits
Bits/(Pixel*Frame)                       : 0.226
Stream size                              : 34.0 GiB (77%)
Writing library                          : ATEME Titan File 3.9.0 (4.9.0.0)
Default                                  : Yes
Forced                                   : No
Color range                              : Limited
Color primaries                          : BT.2020
Transfer characteristics                 : PQ
Matrix coefficients                      : BT.2020 non-constant
Mastering display color primaries        : Display P3
Mastering display luminance              : min: 0.0050 cd/m2, max: 4000 cd/m2

Audio #1
ID                                       : 2
Format                                   : XLL
Format/Info                              : Digital Theater Systems
Commercial name                          : -HD Master Audio
Codec ID                                 : A_DTS
Duration                                 : 1h 48mn
Bit rate mode                            : Variable
Bit rate                                 : 3 816 Kbps
Channel(s)                               : 6 channels
Channel layout                           : C L R Ls Rs LFE
Sampling rate                            : 48.0 KHz
Frame rate                               : 93.750 fps (512 SPF)
Bit depth                                : 24 bits
Compression mode                         : Lossless
Stream size                              : 2.89 GiB (7%)
Title                                    : -HD Ukrainian
Language                                 : Ukrainian
Default                                  : Yes
Forced                                   : No

Audio #2
ID                                       : 3
Format                                   :
Format/Info                              : Digital Theater Systems
Codec ID                                 : A_DTS
Duration                                 : 1h 48mn
Bit rate mode                            : Constant
Bit rate                                 : 1 509 Kbps
Channel(s)                               : 6 channels
Channel layout                           : C L R Ls Rs LFE
Sampling rate                            : 48.0 KHz
Frame rate                               : 93.750 fps (512 SPF)
Bit depth                                : 24 bits
Compression mode                         : Lossy
Stream size                              : 1.14 GiB (3%)
Title                                    : Ukrainian
Language                                 : Ukrainian
Default                                  : No
Forced                                   : No

Audio #3
ID                                       : 4
Format                                   : MLP FBA 16-ch
Format/Info                              : Meridian Lossless Packing FBA with 16-channel presentation
Commercial name                          : Dolby TrueHD with Dolby Atmos
Codec ID                                 : A_TRUEHD
Duration                                 : 1h 48mn
Bit rate mode                            : Variable
Bit rate                                 : 7 170 Kbps
Maximum bit rate                         : 9 216 Kbps
Channel(s)                               : 8 channels
Channel layout                           : L R C LFE Ls Rs Lb Rb
Sampling rate                            : 48.0 KHz
Frame rate                               : 1 200.000 fps (40 SPF)
Compression mode                         : Lossless
Stream size                              : 5.44 GiB (12%)
Title                                    : TrueHD Atmos 7.1
Language                                 : English
Default                                  : No
Forced                                   : No
Number of dynamic objects                : 13
Bed channel count                        : 1 channel
Bed channel configuration                : LFE

Audio #4
ID                                       : 5
Format                                   : AC-3
Format/Info                              : Audio Coding 3
Commercial name                          : Dolby Digital
Codec ID                                 : A_AC3
Duration                                 : 1h 48mn
Bit rate mode                            : Constant
Bit rate                                 : 640 Kbps
Channel(s)                               : 6 channels
Channel layout                           : L R C LFE Ls Rs
Sampling rate                            : 48.0 KHz
Frame rate                               : 31.250 fps (1536 SPF)
Compression mode                         : Lossy
Stream size                              : 497 MiB (1%)
Title                                    : AC-3 5.1
Language                                 : English
Service kind                             : Complete Main
Default                                  : No
Forced                                   : No

Text #1
ID                                       : 6
Format                                   : PGS
Muxing mode                              : zlib
Codec ID                                 : S_HDMV/PGS
Codec ID/Info                            : Picture based subtitle format used on BDs/HD-DVDs
Duration                                 : 1h 35mn
Bit rate                                 : 33.4 Kbps
Count of elements                        : 2766
Stream size                              : 22.8 MiB (0%)
Title                                    : Ukrainian
Language                                 : Ukrainian
Default                                  : No
Forced                                   : No

Text #2
ID                                       : 7
Format                                   : PGS
Muxing mode                              : zlib
Codec ID                                 : S_HDMV/PGS
Codec ID/Info                            : Picture based subtitle format used on BDs/HD-DVDs
Duration                                 : 1h 38mn
Bit rate                                 : 44.2 Kbps
Count of elements                        : 3398
Stream size                              : 31.3 MiB (0%)
Title                                    : English
Language                                 : English
Default                                  : No
Forced                                   : No

Text #3
ID                                       : 8
Format                                   : PGS
Muxing mode                              : zlib
Codec ID                                 : S_HDMV/PGS
Codec ID/Info                            : Picture based subtitle format used on BDs/HD-DVDs
Duration                                 : 1h 46mn
Bit rate                                 : 52.7 Kbps
Count of elements                        : 4592
Stream size                              : 40.3 MiB (0%)
Title                                    : English (SDH)
Language                                 : English
Default                                  : No
Forced                                   : No
Скріншоти







Джерело: &
Особиста оцінка: 10 - без зайвих вагань рекомендую всім!


Золотий реліз (завантажене не впливає на рейтинг)
 Трекер:    Зареєстрований   

Завантажити / скачати мультфільм українською



відео для новачків



 Зареєстрований:   2020-08-08 19:54
 Розмір:   44.04 GB 
 Оцінка мультфільму:   9/10 (Голосів: 14)
   
Інші релізи
   Зоотрополіс / Zootopia (2016) 1080p H.265 Ukr/Eng | Sub Ukr/Eng -Star-Lord-  12 / 0   6.14 GB   2019-02-20 20:43 
   Зоотрополіс / Zootopia (2016) 1080p H.265 Ukr/Eng | Sub Ukr/Eng igor302  18 / 0   4.73 GB   2018-04-10 15:24 
   Зоотрополіс / Zootopia (2016) AVC Ukr/Eng | Sub Ukr/Eng BASTERD-94  34 / 0   2.18 GB   2017-01-01 22:30 
   Зоотрополіс / Zootopia (2016) Ukr/Eng BASTERD-94  15 / 0   2.18 GB   2016-12-31 20:30 
   Зоотрополіс / Zootopia (2016) 720p-mini 60fps Ukr/Eng | Sub Ukr/Eng SilentBoss  5 / 0   4.12 GB   2016-08-15 18:44 
   Зоотрополіс / Zootopia (2016) Remux 1080p Ukr/Eng | Sub Ukr/Eng 11FrYkT  7 / 0   26.41 GB   2016-06-30 19:54 
   Зоотрополіс / Zootopia (2016) AVC Nikson  13 / 0   2.01 GB   2016-06-27 18:06 
   Зоотрополіс / Zootopia (2016) 1080p 3D [HalfOverUnder] Ukr/Eng | Sub Ukr/Eng -VipeR-  2 / 2   8.84 GB   2016-06-27 10:11 
   Зоотрополіс / Zootopia (2016) 720p Ukr/Eng | Sub Ukr/Eng Hanway  24 / 0   3.51 GB   2016-06-26 18:24 
   Зоотрополіс / Zootopia (2016) 1080p Ukr/Eng | Sub Ukr/Eng Hanway  30 / 0   8.38 GB   2016-06-26 17:06 
   Зоотрополіс / Zootopia (2016) Gelios  62 / 1   1.45 GB   2016-06-26 14:18 
morphema 
Новенький


З нами з: 01.01.20
Востаннє: 28.02.21
Повідомлень: 4

2020-08-14 11:49  
Підкажіть, будь ласка, яка мова локалізації текстур мультфільма?
trofum911 
Поважний учасник


З нами з: 31.01.12
Востаннє: 28.02.21
Повідомлень: 180

2020-08-15 16:50  
morphema написано:
Підкажіть, будь ласка, яка мова локалізації текстур мультфільма?

Гадаю це мова оригіналу, тобто англійська

RoMeL 
Відео Гуртом - підтримка та поширення
Відео Гуртом - підтримка та поширення


З нами з: 09.07.08
Востаннє: 01.03.21
Повідомлень: 328

2020-08-16 00:00  
morphema написано:
Підкажіть, будь ласка, яка мова локалізації текстур мультфільма?

англійська

Капонір 
Новенький


З нами з: 01.04.17
Востаннє: 26.02.21
Повідомлень: 9

2021-02-25 15:19  
Ненав'язливе вливання в дитячі голови лівацького лайна.
trofum911 
Поважний учасник


З нами з: 31.01.12
Востаннє: 28.02.21
Повідомлень: 180

2021-02-25 15:58  
Капонір

Пане, чого відразу в дитячі голови? (╭ರ_⊙). Як на мене, цей мультфільм зачіпає дорослі голови також. Хоча, в якомусь сенсі, всі ми діти ✿*∗˵╰༼✪ᗜ✪༽╯˵∗*✿

Ваш часовий пояс: GMT + 2 Години

Нова тема   Відповісти