Формула 1. Сезон 2020. Етап 5. Гран-Прі 70 річчя. Кваліфікація (08.08.2020) IPTV 1080p

Нові коментарі

Нова тема   Відповісти
Автор Повідомлення
sergiyko.5 
VIP


З нами з: 25.02.16
Востаннє: 29.10.20
Повідомлень: 3655

2020-08-08 16:40  
Формула 1. Сезон 2020. Етап 5. Гран-Прі 70 річчя. Кваліфікація (08.08.2020) IPTV 1080p


Формула 1. Сезон 2020. Етап 5. Гран-Прі 70 річчя. Кваліфікація (08.08.2020) IPTV 1080p

Жанр: Перегони Формули 1
Країна: Велика Британія
Телеканал: Setanta Sport HD
Коментар: Максим Подзігун

Опис:
Кваліфікація п'ятого етапу Гран-Прі 70 річчя 2020 року.


Якість: IPTV

Відео:кодек: розмір кадру: 1920 х 1080 бітрейт: 6000 кб/с 25 кад/с
Аудіо: мова: українська кодек: 2.0 бітрейт: 192 кб/с
Тривалість:
01:15:06
Про файл:
General
Unique ID : 297257737505630467509600151551933758189 (0xDFA1C1FE484284DB43B994BD2E1D3AED)
Complete name : D:\Documents\Torrents\SPORT\Formula 1\F1.2020.05.GP70th_Anniversary.Qualifying.1080p.IPTV.
Format :
Format version : Version 4
File size : 3.34 GiB
Duration : 1 h 15 min
Overall bit rate mode : Variable
Overall bit rate : 6 358 kb/s
Movie name : rip by sergiyko
Encoded date : UTC 2020-08-08 14:35:24
Writing application : v47.0.0 ('Black Flag') 64-bit
Writing library : libebml v1.3.10 + v1.5.2

Video
ID : 1
Format : AVC
Format/Info : Advanced Video Codec
Format profile : [email protected]
Format settings : CABAC / 3 Ref Frames
Format settings, CABAC : Yes
Format settings, Reference : 3 frames
Format settings, GOP : M=6, N=50
Codec ID : V_MPEG4/ISO/AVC
Duration : 1 h 15 min
Bit rate mode : Variable
Bit rate : 6 164 kb/s
Maximum bit rate : 7 500 kb/s
Width : 1 920 pixels
Height : 1 080 pixels
Display aspect ratio : 16:9
Frame rate mode : Constant
Frame rate : 25.000 FPS
Color space : YUV
Chroma subsampling : 4:2:0
Bit depth : 8 bits
Scan type : Progressive
Bits/(Pixel*Frame) : 0.119
Stream size : 3.23 GiB (97%)
Language : English
Default : No
Forced : No

Audio
ID : 2
Format : AC-3
Format/Info : Audio Coding 3
Commercial name : Dolby Digital
Codec ID : A_AC3
Duration : 1 h 15 min
Bit rate mode : Constant
Bit rate : 192 kb/s
Channel(s) : 2 channels
Channel layout : L R
Sampling rate : 48.0 kHz
Frame rate : 31.250 FPS (1536 SPF)
Compression mode : Lossy
Delay relative to video : -120 ms
Stream size : 103 MiB (3%)
Title : Максим Подзігун
Language : Ukrainian
Service kind : Complete Main
Default : Yes
Forced : No
Скріншоти:


Запис/зведення: sergiyko



 Трекер:    Зареєстрований   

Завантажити / скачати торрент



відео для новачків



 Зареєстрований:   2020-08-08 16:40
 Розмір:   3.34 GB 
 Оцінка:   10/10 (Голосів: 29)
   
Light_Apollo 
Новенький


З нами з: 22.08.12
Востаннє: 25.10.20
Повідомлень: 7

2020-08-08 20:46  
Раджу подивитись! Кваліфікація супер!
VicCob 
Свій


З нами з: 16.06.10
Востаннє: 25.10.20
Повідомлень: 58

2020-08-08 21:14  
Дякую!
Ваш часовий пояс: GMT + 2 Години

Нова тема   Відповісти