Солодкий листопад / Sweet November (2001) 1080p Ukr/Eng | Sub Eng

Нові коментарі

Нова тема   Відповісти
Автор Повідомлення
Anonymous 







2020-08-08 09:04  
Солодкий листопад / Sweet November (2001) 1080p Ukr/Eng | Sub Eng

Солодкий листопад / Sweet November (2001) 1080p Ukr/Eng | Sub Eng


Жанр: драма, романтичний
Країна: США



Кінокомпанія: 3 Art Entertainment, Bel Air Entertainment, Warner Bros. Pictures
Режисер: Пет О'Коннор / Pat O'Connor
Актори: Кіану Рівз / Keanu Reeves, Шарліз Терон / Charlize Theron, Джейсон Айзекс / Jason Isaacs, Ґрег Ґерманн / Greg Germann, Ліам Айкен / Liam Aiken, Роберт Джой / Robert Joy, Лорен Ґрем / Lauren Graham, Майкл Розенбаум / Michael Rosenbaum, Френк Ланджелла / Frank Langella, Джейсон Кравіц / Jason Kravits, Рей Байкер / Ray Baker та інші

Сюжет:
Усе своє життя Нельсон Мосс присвячує кар'єрі у рекламному бізнесі. Іншого способу життя він не уявляє або просто не помічає. Але зустрівши на своєму шляху ексцентричну Сару, яка через нього провалила іспит на водійська права, Нельсон змушений провести із нею місяць свого заклопотаного життя. А їй більше і не треба, за один місяць вона змусить його прожити інше життя, яке він досі відмовлявся помічати. Головне - жодних зобов'язань, жодного тиску і жодної закоханості.
Головним саундтреком до фільму є відомий хіт "Enya - Only Time", який додов йому ще більше ніжності і романтичності.


Тривалість: 02:00:22
Якість: 1080p
Відео:
кодек:
розмір кадру: 1920x1080
бітрейт: 10.9 Mб/с

Аудіо # 1:
мова: українська
переклад: багатоголосий закадровий
кодек: 2.0
бітрейт: 192 кб/с

Аудіо # 2:
мова: англійська
переклад: оригінал
кодек: E-AC-3 5.1
бітрейт: 640 кб/с

Субтитри:
мова: англійська
тип: програмні (м'які)
формат: *.srt
Info
General
Unique ID : 251997269165313712188245842539239610561 (0xBD94E89DDF1E63B3ABA09A51617E98C1)
Complete name : F:\Toloka\2020\Sweet November (2001) 1080p.
Format :
Format version : Version 4
File size : 10.0 GiB
Duration : 2 h 0 min
Overall bit rate mode : Variable
Overall bit rate : 11.9 Mb/s
Encoded date : UTC 2020-08-08 05:46:14
Writing application : v6.1.0 ('Old Devil') built on Mar 4 2013 09:10:42
Writing library : libebml v1.3.0 + v1.4.0

Video
ID : 1
Format : AVC
Format/Info : Advanced Video Codec
Format profile : [email protected]
Format settings : CABAC / 4 Ref Frames
Format settings, CABAC : Yes
Format settings, Reference : 4 frames
Codec ID : V_MPEG4/ISO/AVC
Duration : 2 h 0 min
Bit rate mode : Variable
Bit rate : 10.9 Mb/s
Maximum bit rate : 15.0 Mb/s
Width : 1 920 pixels
Height : 1 080 pixels
Display aspect ratio : 16:9
Frame rate mode : Constant
Frame rate : 23.976 (24000/1001) FPS
Color space : YUV
Chroma subsampling : 4:2:0
Bit depth : 8 bits
Scan type : Progressive
Bits/(Pixel*Frame) : 0.219
Stream size : 9.14 GiB (91%)
Language : English
Default : Yes
Forced : No
Color range : Limited
Color primaries : BT.709
Transfer characteristics : BT.709
Matrix coefficients : BT.709
Duration_Source : General_Duration

Audio #1
ID : 2
Format : AC-3
Format/Info : Audio Coding 3
Commercial name : Dolby Digital
Codec ID : A_AC3
Duration : 2 h 0 min
Bit rate mode : Constant
Bit rate : 192 kb/s
Channel(s) : 2 channels
Channel layout : L R
Sampling rate : 48.0 kHz
Frame rate : 31.250 FPS (1536 SPF)
Compression mode : Lossy
Stream size : 165 MiB (2%)
Title : UKR (Новий)
Language : Ukrainian
Service kind : Complete Main
Default : Yes
Forced : Yes
Duration_Source : General_Duration

Audio #2
ID : 3
Format : E-AC-3
Format/Info : Enhanced AC-3
Commercial name : Dolby Digital Plus
Codec ID : A_EAC3
Duration : 2 h 0 min
Bit rate mode : Constant
Bit rate : 640 kb/s
Channel(s) : 6 channels
Channel layout : L R C LFE Ls Rs
Sampling rate : 48.0 kHz
Frame rate : 31.250 FPS (1536 SPF)
Compression mode : Lossy
Stream size : 551 MiB (5%)
Title : ENG
Language : English
Service kind : Complete Main
Default : No
Forced : No
Duration_Source : General_Duration

Text
ID : 4
Format : UTF-8
Codec ID : S_TEXT/UTF8
Codec ID/Info : UTF-8 Plain Text
Title : ENG
Language : English
Default : No
Forced : No
Скріншоти








За доріжку подяка п.: xslim, DеLight
За постер подяка п. xslim
Особиста подяка пану denixx за надану матеріальну допомогу на підтримку цього і майбутніх релізів.
Джерело:


Срібний реліз (на рейтинг впливає 50% завантаженого)
 Трекер:    Зареєстрований   

Завантажити / скачати фільм українською



відео для новачків



 Зареєстрований:   2020-08-08 09:04
 Розмір:   10.04 GB 
 Оцінка фільму:   9/10 (Голосів: 3)
   
Інші релізи
Ваш часовий пояс: GMT + 2 Години

Нова тема   Відповісти