Пастка часу / Time Trap (2017) 720p Ukr/Eng | Sub Eng

Нові коментарі

Нова тема   Відповісти
Автор Повідомлення
Anonymous 







2020-08-08 07:52  
Пастка часу / Time Trap (2017) 720p Ukr/Eng | Sub Eng

Пастка часу / Time Trap (2017) 720p Ukr/Eng | Sub Eng


Жанр: екшн, пригодницький, фантастика
Країна: США



Кінокомпанія: Pad Thai Pictures, Filmsmith Production & Management, Rising Phoenix Casting
Режисер: Марк Денніс, Бен Фостер
Актори: Брианна Хоуі, Ендрю Вілсон, Кессіді Гіффорд, Рейлі МакКлендон, Олівія Драгусевіч, Макс Райт, Ганс Марреро, Річ Скідмор, Кріс Старджон, Гопал Бідарі

Сюжет:
Група студентів відправляється в печери Техасу, щоб знайти свого викладача, який зник безвісти. Незважаючи на рішення рятувальників припинити всі пошуки, хлопці не втрачають надію, що він живий і потребує допомоги. Вони впевнені, що таємниче зникнення їх вчителя якось пов'язано з його незвичайною теорією про існування джерела вічної молодості десь в цих місцях. Виявивши загадковий печерний тунель, група намагається проникнути в нього. Хтось із друзів зауважує, що час починає змінюватися якимось чарівним чином. Він тягнеться набагато повільніше, ніж на поверхні. Коли вони спускаються нижче, з героями починають відбуватися ще більш дивні події ...


Тривалість: 01:27:32
Якість: 720p
Відео:
кодек:
розмір кадру: 1280x544
бітрейт: 5610 кб/с

Аудіо # 1:
мова: українська
переклад: професійний дубльований
кодек: 2.0
бітрейт: 192 кб/с

Аудіо # 2:
мова: англійська
переклад: оригінал
кодек: 5.1
бітрейт: 1510 кб/с

Субтитри:
мова: англійська
тип: програмні (м'які)
формат: *.srt
Info
General
Unique ID : 249590011466262218188477222856435765352 (0xBBC549A61203FB929DC680D52C3D1068)
Complete name : F:\Toloka\2020\Time Trap (2017) 720p.
Format :
Format version : Version 4
File size : 4.47 GiB
Duration : 1 h 27 min
Overall bit rate : 7 314 kb/s
Encoded date : UTC 2020-08-08 04:43:19
Writing application : v6.1.0 ('Old Devil') built on Mar 4 2013 09:10:42
Writing library : libebml v1.3.0 + v1.4.0

Video
ID : 1
Format : AVC
Format/Info : Advanced Video Codec
Format profile : [email protected]
Format settings : CABAC / 5 Ref Frames
Format settings, CABAC : Yes
Format settings, Reference : 5 frames
Codec ID : V_MPEG4/ISO/AVC
Duration : 1 h 27 min
Bit rate : 5 610 kb/s
Width : 1 280 pixels
Height : 544 pixels
Display aspect ratio : 2.35:1
Frame rate mode : Constant
Frame rate : 23.976 FPS
Color space : YUV
Chroma subsampling : 4:2:0
Bit depth : 8 bits
Scan type : Progressive
Bits/(Pixel*Frame) : 0.336
Stream size : 3.34 GiB (75%)
Writing library : core 155 r2901 7d0ff22
Encoding settings : cabac=1 / ref=5 / deblock=1:0:0 / analyse=0x3:0x133 / me=umh / subme=8 / psy=1 / psy_rd=1.00:0.00 / mixed_ref=1 / me_range=16 / chroma_me=1 / trellis=1 / 8x8dct=1 / cqm=0 / deadzone=21,11 / fast_pskip=0 / chroma_qp_offset=-2 / threads=12 / lookahead_threads=2 / sliced_threads=0 / nr=0 / decimate=1 / interlaced=0 / bluray_compat=0 / constrained_intra=0 / bframes=3 / b_pyramid=2 / b_adapt=1 / b_bias=0 / direct=1 / weightb=1 / open_gop=0 / weightp=2 / keyint=250 / keyint_min=23 / scenecut=40 / intra_refresh=0 / rc_lookahead=40 / rc=2pass / mbtree=1 / bitrate=5610 / ratetol=1.0 / qcomp=0.60 / qpmin=0 / qpmax=69 / qpstep=4 / cplxblur=20.0 / qblur=0.5 / ip_ratio=1.40 / aq=1:1.00
Language : English
Default : Yes
Forced : No
Duration_Source : General_Duration

Audio #1
ID : 2
Format : AC-3
Format/Info : Audio Coding 3
Commercial name : Dolby Digital
Codec ID : A_AC3
Duration : 1 h 27 min
Bit rate mode : Constant
Bit rate : 192 kb/s
Channel(s) : 2 channels
Channel layout : L R
Sampling rate : 48.0 kHz
Frame rate : 31.250 FPS (1536 SPF)
Compression mode : Lossy
Stream size : 120 MiB (3%)
Title : UKR (K1)
Language : Ukrainian
Service kind : Complete Main
Default : Yes
Forced : Yes
Duration_Source : General_Duration

Audio #2
ID : 3
Format :
Format/Info : Digital Theater Systems
Codec ID : A_DTS
Duration : 1 h 27 min
Bit rate mode : Constant
Bit rate : 1 509 kb/s
Channel(s) : 6 channels
Channel layout : C L R Ls Rs LFE
Sampling rate : 48.0 kHz
Frame rate : 93.750 FPS (512 SPF)
Bit depth : 24 bits
Compression mode : Lossy
Stream size : 945 MiB (21%)
Title : ENG
Language : English
Default : No
Forced : No
Duration_Source : General_Duration

Text
ID : 4
Format : UTF-8
Codec ID : S_TEXT/UTF8
Codec ID/Info : UTF-8 Plain Text
Title : ENG Full
Language : English
Default : No
Forced : No
Скріншоти







За доріжку подяка п.: Krigg070, Bohdan237, Arsenfpu
Особиста подяка пану denixx за надану матеріальну допомогу на підтримку цього і майбутніх релізів.
За постер подяка п. mrgalser
Джерело:


 Трекер:    Зареєстрований   

Завантажити / скачати фільм українською



відео для новачків



 Зареєстрований:   2020-08-08 07:52
 Розмір:   4.47 GB 
 Оцінка фільму:   9.3/10 (Голосів: 23)
   
Інші релізи
   Пастка часу / Time Trap (2017) Remux 1080p Ukr/Eng | sub Eng antik_2008  15 / 1   19.95 GB   2020-08-15 23:40 
   Пастка часу / Time Trap (2017) Neo_Men  12 / 0   1.34 GB   2020-08-11 14:25 
   Пастка часу / Time Trap (2017) 1080p Ukr/Eng | Sub Eng staf777  28 / 0   6.66 GB   2020-08-09 23:29 
   Пастка часу / Time Trap (2017) AVC Ukr/Eng | sub Eng Arsenfpu  167 / 1   2.04 GB   2020-08-08 00:07 
Siegfried 
VIP


З нами з: 01.11.11
Востаннє: 20.09.20
Повідомлень: 325

2020-08-09 11:40  
Доволі непогана фантастика з претензією на науковість.
Невідомі широкому загалу актори, тим не менш, показують непогану гру.
Звісно, деякі моменти викликають ряд питань, але в цілому на загальне сприйняття стрічки особливо не впливають.

Разового ознайомлення шанувальниками жанру точно заслуговує.

5.5/10.

lunatiq 
Частий відвідувач


З нами з: 01.02.16
Востаннє: 17.09.20
Повідомлень: 36

2020-08-09 14:07  
Гуд!
staf777 
Відео Гуртом - підтримка та поширення
Відео Гуртом - підтримка та поширення


З нами з: 16.11.16
Востаннє: 24.09.20
Повідомлень: 4034

2020-08-09 19:51  
+1080
пан Струмок 
VIP


З нами з: 19.02.13
Востаннє: 23.09.20
Повідомлень: 278

2020-08-25 17:09  
твоюжкобилу! яка матня...
cim777 
Свій


З нами з: 19.01.10
Востаннє: 23.09.20
Повідомлень: 61

2020-09-06 19:57  
Фільм сподобався. В кінці хотілося б більше інформації... залишилося багато питань )))
Ваш часовий пояс: GMT + 2 Години

Нова тема   Відповісти