Мисливець за розумом (Сезон 2) / Mindhunter (Season 2) (2019) AVC Ukr/Eng

Нові коментарі

Нова тема   Відповісти
Автор Повідомлення
Цікава ідея 
VIP


З нами з: 26.12.11
Востаннє: 30.09.20
Повідомлень: 672

2020-08-07 21:58  
AVC | 1080p

Мисливець за розумом (Сезон 2) / Mindhunter (Season 2) (2019) AVC Ukr/Eng


Мисливець за розумом (Сезон 2) / Mindhunter (Season 2) (2019) AVC Ukr/Eng


Жанр: кримінал, драма, трилер
Країна: США



Кінокомпанія / телеканал: Netflix, Denver and Delilah Productions, Panic Pictures
Режисери: Девід Фінчер, Карл Франклін, Ендрю Дуґлас, Асіф Кападія, Тобіас Ліндгольм, Ендрю Домінік
Актори: Джонатан Ґрофф, Гольт МакКелені, Ганна Ґросс, Коттер Сміт та інші.

Сюжет:
Серіал знятий Девідом Фінчером за книгою колишнього спецагента Джона Дуґласа «Мисливець за розумом: За кулісами елітного відділу криміналістів ФБР». Робота Дуґласа вважається однією з найкращих книг про формування психологічного портрету серійних маніяків.


Перекладено та озвучено ТО "Цікава Ідея" за підтримки fishMD


Тривалість: 1 серія: ~ 50 хв. (цілком серій: 9)
Перелік серій:

01. Episode #2.1
02. Episode #2.2
03. Episode #2.3
04. Episode #2.4
05. Episode #2.5
06. Episode #2.6
07. Episode #2.7
08. Episode #2.8
09. Episode #2.9
Якість: AVC
Відео:
кодек:
розмір кадру: 720 x 328
бітрейт: 1 100 кб/с

Аудіо # 1:
мова: українська | "Цікава Ідея"
переклад: професійний багатоголосий закадровий
кодек: 5.1
бітрейт: 448 кб/с

Аудіо # 2:
мова: англійська
переклад: оригінал
кодек: E- 5.1
бітрейт: 640 кб/с
Info
Код:
Format                      :
Format version              : Version 4
File size                   : 749 MiB
Duration                    : 48 min 29 s
Overall bit rate            : 2 159 kb/s
Movie name                  : Мисливець за розумом / Mindhunter - S02E01 (2019) AVC [Ukr.Eng] [Цікава Ідея]
Encoded date                : UTC 2020-07-22 22:40:35
Writing application         : v6.8.0 ('Theme for Great Cities') 32bit built on Mar  2 2014 21:27:07
Writing library             : libebml v1.3.0 + v1.4.1
Cover                       : Yes
Attachments                 : cover.jpg

Video
ID                          : 1
Format                      : AVC
Format/Info                 : Advanced Video Codec
Format profile              : [email protected]
Format settings             : CABAC / 5 Ref Frames
Format settings, CABAC      : Yes
Format settings, Reference  : 5 frames
Codec ID                    : V_MPEG4/ISO/AVC
Duration                    : 48 min 29 s
Bit rate                    : 1 028 kb/s
Nominal bit rate            : 1 100 kb/s
Width                       : 720 pixels
Height                      : 328 pixels
Display aspect ratio        : 2.2:1
Original display aspect rat : 2.2:1
Frame rate mode             : Constant
Frame rate                  : 23.976 (24000/1001) FPS
Color space                 : YUV
Chroma subsampling          : 4:2:0
Bit depth                   : 8 bits
Scan type                   : Progressive
Bits/(Pixel*Frame)          : 0.181
Stream size                 : 356 MiB (48%)
Writing library             : core 148 r2795M aaa9aa8
Encoding settings           : cabac=1 / ref=5 / deblock=1:-1:-1 / analyse=0x3:0x113 / me=umh / subme=9 / psy=1 / psy_rd=1.00:0.15 / mixed_ref=1 / me_range=16 / chroma_me=1 / trellis=2 / 8x8dct=1 / cqm=0 / deadzone=21,11 / fast_pskip=1 / chroma_qp_offset=-3 / threads=24 / lookahead_threads=2 / sliced_threads=0 / nr=0 / decimate=1 / interlaced=0 / bluray_compat=0 / constrained_intra=0 / bframes=3 / b_pyramid=2 / b_adapt=2 / b_bias=0 / direct=3 / weightb=1 / open_gop=0 / weightp=2 / keyint=250 / keyint_min=23 / scenecut=40 / intra_refresh=0 / rc_lookahead=50 / rc=abr / mbtree=1 / bitrate=1100 / ratetol=1.0 / qcomp=0.60 / qpmin=0 / qpmax=69 / qpstep=4 / ip_ratio=1.40 / aq=1:1.00
Default                     : Yes
Forced                      : No

Audio #1
ID                          : 2
Format                      : AC-3
Format/Info                 : Audio Coding 3
Commercial name             : Dolby Digital
Codec ID                    : A_AC3
Duration                    : 48 min 29 s
Bit rate mode               : Constant
Bit rate                    : 448 kb/s
Channel(s)                  : 6 channels
Channel layout              : L R C LFE Ls Rs
Sampling rate               : 48.0 kHz
Frame rate                  : 31.250 FPS (1536 SPF)
Bit depth                   : 16 bits
Compression mode            : Lossy
Stream size                 : 155 MiB (21%)
Title                       : Цікава Ідея
Language                    : Ukrainian
Service kind                : Complete Main
Default                     : Yes
Forced                      : No

Audio #2
ID                          : 3
Format                      : E-AC-3
Format/Info                 : Enhanced AC-3
Commercial name             : Dolby Digital Plus
Codec ID                    : A_EAC3
Duration                    : 48 min 29 s
Bit rate mode               : Constant
Bit rate                    : 640 kb/s
Channel(s)                  : 6 channels
Channel layout              : L R C LFE Ls Rs
Sampling rate               : 48.0 kHz
Frame rate                  : 31.250 FPS (1536 SPF)
Compression mode            : Lossy
Stream size                 : 222 MiB (30%)
Title                       : Original
Language                    : English
Service kind                : Complete Main
Default                     : No
Forced                      : No
Скріншоти



Перекладено та озвучено творчим об'єднанням:
Ролі озвучили: Семен Птаха, Юлія Малахова, Євген Малуха, Ольга Мотрич, Олександр Чернов та Олексій Сафін


Авторський реліз (завантажувати можна без реєстрації)
 Трекер:    Зареєстрований   

Завантажити / скачати серіал українською



відео для новачків



 Зареєстрований:   2020-08-07 21:58
 Розмір:   7.56 GB 
 Оцінка серіалу:   9.3/10 (Голосів: 23)
   
pmzmer 
Новенький


З нами з: 06.10.17
Востаннє: 28.09.20
Повідомлень: 1

2020-08-07 22:19  
Коли буде роздача?
Цікава ідея 
VIP


З нами з: 26.12.11
Востаннє: 30.09.20
Повідомлень: 672

2020-08-07 22:39  
pmzmer написано:
Коли буде роздача?

Роздаємо.

tpolit 
VIP


З нами з: 10.01.15
Востаннє: 30.09.20
Повідомлень: 607

2020-08-09 20:27  
Серіал остаточно спаскудили толерастією. Насипали купу чорношкірих, додали супер самостійних та впевнених у собі жінок, які зверхньо строять агента фбр, створили цілу сюжетну лінію про лесбіянок - тепер не прикопаєшся, задовольнили всіх. Лайно, а не сезон.
Soobota 
Новенький


З нами з: 05.10.18
Востаннє: 30.09.20
Повідомлень: 4

2020-09-28 19:03  
6-та серія 49:10 caucasian – це "білий", не "кавказець"
Ваш часовий пояс: GMT + 2 Години

Нова тема   Відповісти