Співай / Sing (2016) 1080p H.265 Ukr/Eng | Sub Ukr/Eng

Нові коментарі

Нова тема   Відповісти
Автор Повідомлення
Anonymous 







2020-08-06 14:05  
Співай / Sing (2016) 1080p H.265 Ukr/Eng | Sub Ukr/Eng

Співай / Sing (2016) 1080p H.265 Ukr/Eng | Sub Ukr/Eng


Жанр: анімація, комедія, мюзикл
Країна: США
Кінокомпанія: Universal Pictures, Illumination Entertainment
Режисер: Гарт Дженнінгс / Garth Jennings
Актори: Метью МакКонаґі / Matthew McConaughey, Різ Візерспун / Reese Witherspoon, Сет МакФарлейн / Seth MacFarlane, Скарлет Йогансен / Scarlett Johansson, Джон Сі Рейллі / John C. Reilly, Тарон Еджертон / Taron Egerton, Торі Келлі / Tori Kelly, Дженніфер Сондерс / Jennifer Saunders, Нік Кролл / Nick Kroll, Гарт Дженнінгс / Garth Jennings та інші

Сюжет:
Творці "Посіпак" оголошують старт небаченої досі пісенної битви талантів! Директор колись успішного театру коала Бастер хоче повернути своєму закладу славу і визнання. Він твердо налаштований організувати найграндіозніше у світі шоу. На прослуховування запрошено усіх! І навіть якщо ти сором'язливе слоненя-підліток, рішуча крихітна миша, заклопотана мама-свинка, крутий горила-гангстер чи дикобразиха-рокерка – не вагайся, приходь і співай на повні груди, порви усіх улюбленими хітами. Це твій шанс!

Тривалість: 01:47:53
Якість:

Відео:
кодек: H.265 (HEVC)
розмір кадру: 1920 x 1040
бітрейт: 9 591 кб/с
бітова глибина: 10 біт

Увага! Перед завантаженням переконайтесь, що ваш пристрій відтворення (та/або ПЗ) підтримує H.265 (HEVC)

Аудіо # 1:
мова: українська
переклад: професійний дубльований | Студія LeDoyen
кодек: 5.1
бітрейт: 1510 кб/с

Аудіо # 2:
мова: англійська
переклад: оригінал
кодек: 5.1
бітрейт: 1510 кб/с

Субтитри # 1-2: (Forced, Full)
мова: українська
тип: програмні (м'які)
формат: *.srt

Субтитри # 3-4: (Full, SDH)
мова: англійська
тип: програмні (м'які)
формат: *.srt


Info
Код:
General
Unique ID                                : 303033281166340577607574531548007363709 (0xE3FA1647E33776B398FD7DCD4FF7F47D)
Complete name                            : Sing (2016) 1080p H.265 [UKR_ENG] [Hurtom].
Format                                   :
Format version                           : Version 4
File size                                : 9.50 GiB
Duration                                 : 1 h 47 min
Overall bit rate                         : 12.6 Mb/s
Movie name                               : Співай / Sing (2016)
Encoded date                             : UTC 2020-08-07 21:08:08
Writing application                      : v20.0.0 ('I Am The Sun') 64-bit
Writing library                          : libebml v1.3.5 + v1.4.8
Cover                                    : Yes
Attachments                              : cover

Video
ID                                       : 1
Format                                   : HEVC
Format/Info                              : High Efficiency Video Coding
Format profile                           : Main [email protected]@High
Codec ID                                 : V_MPEGH/ISO/HEVC
Duration                                 : 1 h 47 min
Bit rate                                 : 9 590 kb/s
Width                                    : 1 920 pixels
Height                                   : 1 040 pixels
Display aspect ratio                     : 1.85:1
Frame rate mode                          : Constant
Frame rate                               : 23.976 (23976/1000) FPS
Original frame rate                      : 23.976 (24000/1001) FPS
Color space                              : YUV
Chroma subsampling                       : 4:2:0
Bit depth                                : 10 bits
Bits/(Pixel*Frame)                       : 0.200
Stream size                              : 7.23 GiB (76%)
Title                                    : Співай / Sing (2016)
Writing library                          : x265 3.3+1-g554c887ac:[Windows][MSVC 1924][64 bit] 10bit
Encoding settings                        : cpuid=1111039 / frame-threads=3 / numa-pools=12 / wpp / no-pmode / no-pme / no-psnr / no-ssim / log-level=2 / input-csp=1 / input-res=1920x1040 / interlace=0 / total-frames=144157 / level-idc=41 / high-tier=1 / uhd-bd=0 / ref=5 / no-allow-non-conformance / no-repeat-headers / annexb / no-aud / no-hrd / info / hash=0 / no-temporal-layers / open-gop / min-keyint=23 / keyint=240 / gop-lookahead=0 / bframes=16 / b-adapt=2 / b-pyramid / bframe-bias=0 / rc-lookahead=60 / lookahead-slices=4 / scenecut=40 / hist-scenecut=0 / radl=0 / no-splice / no-intra-refresh / ctu=32 / min-cu-size=8 / rect / amp / max-tu-size=32 / tu-inter-depth=4 / tu-intra-depth=4 / limit-tu=1 / rdoq-level=2 / dynamic-rd=0.00 / no-ssim-rd / signhide / no-tskip / nr-intra=0 / nr-inter=0 / no-constrained-intra / no-strong-intra-smoothing / max-merge=4 / limit-refs=2 / limit-modes / me=3 / subme=7 / merange=57 / temporal-mvp / no-frame-dup / no-hme / weightp / weightb / no-analyze-src-pics / deblock=-3:-3 / no-sao / no-sao-non-deblock / rd=6 / selective-sao=0 / no-early-skip / no-rskip / no-fast-intra / no-tskip-fast / no-cu-lossless / no-b-intra / no-splitrd-skip / rdpenalty=0 / psy-rd=2.00 / psy-rdoq=1.00 / no-rd-refine / no-lossless / cbqpoffs=0 / crqpoffs=0 / rc=crf / crf=20.0 / qcomp=0.65 / qpstep=4 / stats-write=0 / stats-read=0 / vbv-maxrate=50000 / vbv-bufsize=50000 / vbv-init=0.9 / crf-max=0.0 / crf-min=0.0 / ipratio=1.40 / pbratio=1.30 / aq-mode=1 / aq-strength=1.00 / no-cutree / zone-count=0 / no-strict-cbr / qg-size=32 / no-rc-grain / qpmax=69 / qpmin=0 / no-const-vbv / sar=1 / overscan=0 / videoformat=5 / range=0 / colorprim=1 / transfer=1 / colormatrix=1 / chromaloc=0 / display-window=0 / cll=0,0 / min-luma=0 / max-luma=1023 / log2-max-poc-lsb=8 / vui-timing-info / vui-hrd-info / slices=1 / no-opt-qp-pps / no-opt-ref-list-length-pps / no-multi-pass-opt-rps / scenecut-bias=0.05 / hist-threshold=0.01 / no-opt-cu-delta-qp / no-aq-motion / no-hdr10 / no-hdr10-opt / no-dhdr10-opt / no-idr-recovery-sei / analysis-reuse-level=0 / analysis-save-reuse-level=0 / analysis-load-reuse-level=0 / scale-factor=0 / refine-intra=0 / refine-inter=0 / refine-mv=1 / refine-ctu-distortion=0 / no-limit-sao / ctu-info=0 / no-lowpass-dct / refine-analysis-type=0 / copy-pic=1 / max-ausize-factor=1.0 / no-dynamic-refine / no-single-sei / no-hevc-aq / no-svt / no-field / qp-adaptation-range=1.00 / no-scenecut-aware-qpconformance-window-offsets / right=0 / bottom=0
Default                                  : Yes
Forced                                   : No
Color range                              : Limited
Color primaries                          : BT.709
Transfer characteristics                 : BT.709
Matrix coefficients                      : BT.709

Audio #1
ID                                       : 2
Format                                   :
Format/Info                              : Digital Theater Systems
Codec ID                                 : A_DTS
Duration                                 : 1 h 47 min
Bit rate mode                            : Constant
Bit rate                                 : 1 509 kb/s
Channel(s)                               : 6 channels
Channel layout                           : C L R Ls Rs LFE
Sampling rate                            : 48.0 kHz
Frame rate                               : 93.750 FPS (512 SPF)
Bit depth                                : 24 bits
Compression mode                         : Lossy
Stream size                              : 1.14 GiB (12%)
Title                                    : / 5.1 Ch / 1509 kbps / DUB / Студія LeDoyen
Language                                 : Ukrainian
Default                                  : Yes
Forced                                   : Yes

Audio #2
ID                                       : 3
Format                                   :
Format/Info                              : Digital Theater Systems
Codec ID                                 : A_DTS
Duration                                 : 1 h 47 min
Bit rate mode                            : Constant
Bit rate                                 : 1 509 kb/s
Channel(s)                               : 6 channels
Channel layout                           : C L R Ls Rs LFE
Sampling rate                            : 48.0 kHz
Frame rate                               : 93.750 FPS (512 SPF)
Bit depth                                : 16 bits
Compression mode                         : Lossy
Stream size                              : 1.14 GiB (12%)
Title                                    : / 5.1 Ch / 1509 kbps / Original
Language                                 : English
Default                                  : No
Forced                                   : No

Text #1
ID                                       : 4
Format                                   : UTF-8
Codec ID                                 : S_TEXT/UTF8
Codec ID/Info                            : UTF-8 Plain Text
Duration                                 : 1 h 35 min
Bit rate                                 : 1 b/s
Count of elements                        : 30
Stream size                              : 1.12 KiB (0%)
Title                                    : Forced
Language                                 : Ukrainian
Default                                  : Yes
Forced                                   : Yes

Text #2
ID                                       : 5
Format                                   : UTF-8
Codec ID                                 : S_TEXT/UTF8
Codec ID/Info                            : UTF-8 Plain Text
Duration                                 : 1 h 46 min
Bit rate                                 : 75 b/s
Count of elements                        : 1362
Stream size                              : 58.8 KiB (0%)
Title                                    : Full
Language                                 : Ukrainian
Default                                  : No
Forced                                   : No

Text #3
ID                                       : 6
Format                                   : UTF-8
Codec ID                                 : S_TEXT/UTF8
Codec ID/Info                            : UTF-8 Plain Text
Duration                                 : 1 h 38 min
Bit rate                                 : 57 b/s
Count of elements                        : 1410
Stream size                              : 41.2 KiB (0%)
Title                                    : Full
Language                                 : English
Default                                  : No
Forced                                   : No

Text #4
ID                                       : 7
Format                                   : UTF-8
Codec ID                                 : S_TEXT/UTF8
Codec ID/Info                            : UTF-8 Plain Text
Duration                                 : 1 h 39 min
Bit rate                                 : 69 b/s
Count of elements                        : 1733
Stream size                              : 50.6 KiB (0%)
Title                                    : SDH
Language                                 : English
Default                                  : No
Forced                                   : No

Menu
00:00:00.000                             : :00:00:00.000
00:04:29.352                             : :00:04:29.352
00:10:36.469                             : :00:10:36.469
00:14:04.677                             : :00:14:04.677
00:18:32.653                             : :00:18:32.653
00:25:14.722                             : :00:25:14.722
00:30:04.052                             : :00:30:04.052
00:35:11.775                             : :00:35:11.776
00:40:07.405                             : :00:40:07.405
00:44:36.132                             : :00:44:36.132
00:50:26.649                             : :00:50:26.649
00:55:36.208                             : :00:55:36.208
01:04:40.710                             : :01:04:40.710
01:14:03.981                             : :01:14:03.981
01:19:17.962                             : :01:19:17.962
01:23:59.159                             : :01:23:59.159
01:26:56.461                             : :01:26:56.461
01:30:38.266                             : :01:30:38.266
01:34:47.181                             : :01:34:47.181
01:40:16.010                             : :01:40:16.010
Світлини




Джерело: &
Особиста оцінка: 0 - не дивився

Подяка пану leicheman за надані укр. субтитри


 Трекер:    Зареєстрований   

Завантажити / скачати мультфільм українською



відео для новачків



 Зареєстрований:   2020-08-07 23:24
 Розмір:   9.5 GB 
 Оцінка мультфільму:   10/10 (Голосів: 6)
   
Інші релізи
   Сусіди 2 / Neighbors 2: Sorority Rising (2016) 1080p Ukr/Eng | Sub Eng igor911  1 / 1   11 GB   2020-12-16 12:43 
   Сусіди 2 / Neighbors 2: Sorority Rising (2016) 720p Ukr/Eng | Sub Eng 11FrYkT  2 / 0   5.42 GB   2020-12-11 22:45 
   Співай / Sing (2016) Ukr/Eng antik_2008  34 / 0   2 GB   2019-09-28 19:29 
   Співай / Sing (2016) 720p Ukr/Eng | Sub Eng igor911  26 / 0   6.32 GB   2019-09-28 10:06 
   Співай / Sing (2016) 1080p 3D [Half OverUnder] Ukr/Eng | Sub Eng igor911  6 / 0   13.52 GB   2019-09-28 10:05 
   Співай / Sing (2016) Remux 1080p Ukr/Eng | Sub Eng igor911  4 / 1   31.61 GB   2019-09-28 09:20 
   Співай / Sing (2016) AVC Ukr/Eng | Sub Eng Patriot_ukr  18 / 0   2.12 GB   2019-09-27 18:06 
   Співай / Sing (2016) Electroz  37 / 0   1.27 GB   2017-04-28 21:52 
   Співай / Sing (2016) 1080p Ukr/Eng | Sub Eng Electroz  21 / 0   11.1 GB   2017-04-28 21:26 
   Сусіди 2 / Neighbors 2: Sorority Rising (2016) AVC Patriot_ukr  1 / 0   1.73 GB   2017-03-20 22:49 
   Сусіди 2 / Neighbors 2: Sorority Rising (2016) Covenant  3 / 0   1.45 GB   2016-08-24 17:29 
Ваш часовий пояс: GMT + 2 Години

Нова тема   Відповісти