Фатальний потяг / Fatal Attraction (1987) 1080p Ukr/Eng | Sub Eng

Нові коментарі

Нова тема   Відповісти
Останній раз роздавалося banzaycs (2021-02-28)
Автор Повідомлення
Anonymous 







2020-08-06 10:30  
Фатальний потяг / Fatal Attraction (1987) 1080p Ukr/Eng | Sub Eng

Фатальний потяг / Fatal Attraction (1987) 1080p Ukr/Eng | Sub Eng


Жанр: драма, трилер
Країна: США



Кінокомпанія: Paramount Pictures
Режисер: Едріан Лайн
Актори: Майкл Дуглас, Глен Клоуз, Ен Арчер, Елен Хемілтон Латц, Стюарт Пенкін, Елен Фолі, Фред Гуїн, Мег Манді, Том Бреннан, Луїс Сміт та інші.

Сюжет:
Безтурботним і щасливим було життя адвоката Дена Галагера з молодою дружиною Бет до того фатального дня, коли Бет відправилась за місто до батьків, а у Дена з'явилися два дні «волі» від сімейних уз. Відчувши скороминущий потяг до Алекс Форрест - нової співробітниці фірми, яку він обслуговував, він був задоволений взаємністю дами й провів з нею ніч, спочатку у своєму домі, а потім вже на квартирі коханки.
Під кінець другого дня Ден хотів повернутися до свого сімейного вогнища, але виявилося, що тепер він затиснутий мертвою хваткою справжньої любовної маніячки. Вона почала з того, що перерізала собі вени, і охопленого панікою Дену довелося бинтувати їй руки й утішати. Коли Дену все ж таки вдалося вирватися від Алекс до себе додому, його життя перетворилося на справжній кошмар...


Тривалість: 01:59:28
Якість: 1080p
Відео:
кодек:
розмір кадру: 1920x1080
бітрейт: 8878 кб/с

Аудіо # 1:
мова: українська
переклад: багатоголосий закадровий
кодек: 5.1
бітрейт: 384 кб/с

Аудіо # 2:
мова: англійська
переклад: оригінал
кодек: 5.1
бітрейт: 640 кб/с

Субтитри:
мова: англійська
тип: програмні (м'які)
формат: *.srt
Info
General
Unique ID : 226022512065222111029002299672936542628 (0xAA0A5A377D548397A9718FB4582F71A4)
Complete name : F:\Toloka\2020\Fatal Attraction (1987) 1080p.
Format :
Format version : Version 4
File size : 8.26 GiB
Duration : 1 h 59 min
Overall bit rate : 9 904 kb/s
Encoded date : UTC 2020-08-06 08:22:09
Writing application : v6.1.0 ('Old Devil') built on Mar 4 2013 09:10:42
Writing library : libebml v1.3.0 + v1.4.0

Video
ID : 1
Format : AVC
Format/Info : Advanced Video Codec
Format profile : [email protected]
Format settings : CABAC / 4 Ref Frames
Format settings, CABAC : Yes
Format settings, Reference : 4 frames
Codec ID : V_MPEG4/ISO/AVC
Duration : 1 h 59 min
Bit rate : 8 878 kb/s
Width : 1 920 pixels
Height : 1 080 pixels
Display aspect ratio : 16:9
Frame rate mode : Constant
Frame rate : 23.976 (24000/1001) FPS
Color space : YUV
Chroma subsampling : 4:2:0
Bit depth : 8 bits
Scan type : Progressive
Bits/(Pixel*Frame) : 0.179
Stream size : 7.25 GiB (88%)
Writing library : core 67 r1160 ea224ee
Encoding settings : cabac=1 / ref=4 / deblock=1:0:0 / analyse=0x3:0x113 / me=umh / subme=7 / psy_rd=1.0:0.0 / mixed_ref=1 / me_range=16 / chroma_me=1 / trellis=1 / 8x8dct=1 / cqm=0 / deadzone=21,11 / chroma_qp_offset=-2 / threads=6 / nr=0 / decimate=1 / mbaff=0 / bframes=3 / b_pyramid=1 / b_adapt=1 / b_bias=0 / direct=1 / wpredb=1 / keyint=250 / keyint_min=25 / scenecut=40 / rc=2pass / bitrate=8878 / ratetol=1.0 / qcomp=0.60 / qpmin=10 / qpmax=51 / qpstep=4 / cplxblur=20.0 / qblur=0.5 / ip_ratio=1.40 / pb_ratio=1.30 / aq=1:1.00
Language : English
Default : Yes
Forced : No
Duration_Source : General_Duration

Audio #1
ID : 2
Format : AC-3
Format/Info : Audio Coding 3
Commercial name : Dolby Digital
Codec ID : A_AC3
Duration : 1 h 59 min
Bit rate mode : Constant
Bit rate : 384 kb/s
Channel(s) : 6 channels
Channel layout : L R C LFE Ls Rs
Sampling rate : 48.0 kHz
Frame rate : 31.250 FPS (1536 SPF)
Compression mode : Lossy
Stream size : 328 MiB (4%)
Title : UKR (Inter)
Language : Ukrainian
Service kind : Complete Main
Default : Yes
Forced : Yes
Duration_Source : General_Duration

Audio #2
ID : 3
Format : AC-3
Format/Info : Audio Coding 3
Commercial name : Dolby Digital
Codec ID : A_AC3
Duration : 1 h 59 min
Bit rate mode : Constant
Bit rate : 640 kb/s
Channel(s) : 6 channels
Channel layout : L R C LFE Ls Rs
Sampling rate : 48.0 kHz
Frame rate : 31.250 FPS (1536 SPF)
Compression mode : Lossy
Stream size : 547 MiB (6%)
Title : ENG
Language : English
Service kind : Complete Main
Default : No
Forced : No
Duration_Source : General_Duration

Text #1
ID : 4
Format : UTF-8
Codec ID : S_TEXT/UTF8
Codec ID/Info : UTF-8 Plain Text
Title : ENG
Language : English
Default : No
Forced : No

Text #2
ID : 5
Format : UTF-8
Codec ID : S_TEXT/UTF8
Codec ID/Info : UTF-8 Plain Text
Title : ENG
Language : English
Default : Yes
Forced : No
Скріншоти






За доріжку подяка п. Romario_O
Особиста подяка пану denixx за надану матеріальну допомогу на підтримку цього і майбутніх релізів.
Джерело:


Срібний реліз (на рейтинг впливає 50% завантаженого)
 Трекер:    Зареєстрований   

Завантажити / скачати фільм українською



відео для новачків



 Зареєстрований:   2020-08-06 10:30
 Розмір:   8.26 GB 
 Оцінка фільму:   8.5/10 (Голосів: 4)
   
Ваш часовий пояс: GMT + 2 Години

Нова тема   Відповісти