[збір коштів] Принц-дракон / Принц драконів (Сезон 2, серії 1-2) / The Dragon Prince (Season 2, episodes 1-2) (2019) 1080p Ukr/Eng

Нові коментарі

Нова тема   Відповісти
Автор Повідомлення
Цікава ідея 
VIP


З нами з: 25.12.11
Востаннє: 06.03.21
Повідомлень: 823

2020-08-05 11:53  
[збір коштів] Принц-дракон / Принц драконів (Сезон 2, серії 1-2) / The Dragon Prince (Season 2, episodes 1-2) (2019) 1080p Ukr/Eng


[збір коштів] Принц-дракон / Принц драконів (Сезон 2, серії 1-2) / The Dragon Prince (Season 2, episodes 1-2) (2019) 1080p Ukr/Eng


На озвучення серіалу проходить ЗБІР КОШТІВ


Жанр: пригоди, фентезі
Країна: США



Кінокомпанія: Bardel Entertainment, MWM (MadisonWellsMedia), Netflix
Режисер: Аарон Еґаз, Джастін Річмонд
Ролі озвучують: Джек Де Сена, Паула Берроуз, Саша Рожен, Джессі Інокалля та інші.

Сюжет:
Колись давно дракони, люди і ельфи жили в злагоді. Однак люди, нездатні чаклувати, відкрили новий вид магії - Темну магію. Ельфи і Дракони жахнулися їй, адже для магії використовувалася життя будь-якого магічного істоти. Розлючені ельфи і дракони вирішили вигнати все людство на західну частину континенту; сам Гром, король драконів, взяв на себе обов'язок охороняти кордони і не пускати людей на схід. Так тривало наступне тисячоліття, поки люди не вбили Грома за допомогою темної магії. Світ опинився на порозі нової війни. Дія відбувається в одному з людських королівств - Католіс, яке знаходиться на кордоні з Зейді - землею драконів і ельфів. Саме солдати Католіса на чолі з магом Вирен вбили дракона, який охороняв кордони Зейді, а потім вкрали яйце, в якому знаходиться єдиний спадкоємець короля драконів. Проте ельфи думають, що люди знищили і яйце, так група опівнічних ельфів вирішує напасти вночі на покої короля, убивши його і сина в знак помсти. Райла, одна з ельфіек стикається з синами короля - Каллум і Езраном і дізнається, що яйце на ділі не знищено. Утрьох вони вирішують втекти з замку, щоб віднести яйце в Зейді і тим самим якомога швидше запобігти можливій війну між ельфами і людьми. Райлу, Езра і Каллума чекають попереду небезпечні подорожі, а також їх будуть переслідувати найманці Вирена, щоб повернути яйце і вбити спадкоємців короля. Так маг Вирен, позбувшись від спадкоємців короля, сподівається сам дістати трон.


Тривалість: 1 серія: ~ 26 хв. (цілком серій: 2/9)
Перелік серій

01. A Secret and a Spark
02. Half Moon Lies
03. —
04. —
05. —
06. —
07. —
08. —
09. —
Якість: 1080p
Відео:
кодек:
розмір кадру: 1920 x 1080
бітрейт: ~ 5 000 кб/с

Аудіо # 1:
мова: українська | "Цікава Ідея"
переклад: професійний дубльований
кодек: 2.0
бітрейт: 192 кб/с

Аудіо # 2:
мова: англійська
переклад: оригінал
кодек: E- 5.1
бітрейт: 448 кб/с
Info
Код:
Format                      :
Format version              : Version 4
File size                   : 743 MiB
Duration                    : 26 min 4 s
Overall bit rate mode       : Variable
Overall bit rate            : 3 984 kb/s
Movie name                  : Принц-дракон / The Dragon Prince - S02E01 (2019) 1080p [Ukr.Eng] [Цікава Ідея]
Encoded date                : UTC 2020-08-05 09:18:30
Writing application         : v6.8.0 ('Theme for Great Cities') 32bit built on Mar  2 2014 21:27:07
Writing library             : libebml v1.3.0 + v1.4.1
Cover                       : Yes
Attachments                 : cover.jpg

Video
ID                          : 1
Format                      : AVC
Format/Info                 : Advanced Video Codec
Format profile              : [email protected]
Format settings             : CABAC / 3 Ref Frames
Format settings, CABAC      : Yes
Format settings, Reference  : 3 frames
Codec ID                    : V_MPEG4/ISO/AVC
Duration                    : 26 min 4 s
Bit rate mode               : Variable
Bit rate                    : 3 265 kb/s
Nominal bit rate            : 3 480 kb/s
Maximum bit rate            : 5 220 kb/s
Width                       : 1 920 pixels
Height                      : 1 080 pixels
Display aspect ratio        : 16:9
Frame rate mode             : Constant
Frame rate                  : 23.976 (24000/1001) FPS
Color space                 : YUV
Chroma subsampling          : 4:2:0
Bit depth                   : 8 bits
Scan type                   : Progressive
Bits/(Pixel*Frame)          : 0.066
Stream size                 : 609 MiB (82%)
Writing library             : core 148 r2715 7e75228
Encoding settings           : cabac=1 / ref=3 / deblock=1:0:0 / analyse=0x1:0x111 / me=umh / subme=10 / psy=1 / psy_rd=1.00:0.00 / mixed_ref=1 / me_range=24 / chroma_me=1 / trellis=2 / 8x8dct=0 / cqm=0 / deadzone=21,11 / fast_pskip=1 / chroma_qp_offset=-2 / threads=8 / lookahead_threads=1 / sliced_threads=0 / nr=0 / decimate=1 / interlaced=0 / bluray_compat=0 / stitchable=1 / constrained_intra=0 / bframes=2 / b_pyramid=0 / b_adapt=2 / b_bias=0 / direct=3 / weightb=1 / open_gop=0 / weightp=2 / keyint=48 / keyint_min=25 / scenecut=0 / intra_refresh=0 / rc_lookahead=48 / rc=2pass / mbtree=1 / bitrate=3480 / ratetol=1.0 / qcomp=0.50 / qpmin=6 / qpmax=51 / qpstep=4 / cplxblur=20.0 / qblur=0.5 / vbv_maxrate=5220 / vbv_bufsize=6960 / nal_hrd=vbr / filler=0 / ip_ratio=1.40 / aq=1:1.00
Default                     : Yes
Forced                      : No

Audio #1
ID                          : 2
Format                      : AC-3
Format/Info                 : Audio Coding 3
Commercial name             : Dolby Digital
Codec ID                    : A_AC3
Duration                    : 26 min 4 s
Bit rate mode               : Constant
Bit rate                    : 192 kb/s
Channel(s)                  : 2 channels
Channel layout              : L R
Sampling rate               : 48.0 kHz
Frame rate                  : 31.250 FPS (1536 SPF)
Bit depth                   : 16 bits
Compression mode            : Lossy
Stream size                 : 35.8 MiB (5%)
Title                       : Цікава Ідея [дубльований]
Language                    : Ukrainian
Service kind                : Complete Main
Default                     : Yes
Forced                      : No

Audio #2
ID                          : 3
Format                      : E-AC-3
Format/Info                 : Enhanced AC-3
Commercial name             : Dolby Digital Plus
Codec ID                    : A_EAC3
Duration                    : 26 min 4 s
Bit rate mode               : Constant
Bit rate                    : 448 kb/s
Channel(s)                  : 6 channels
Channel layout              : L R C LFE Ls Rs
Sampling rate               : 48.0 kHz
Frame rate                  : 31.250 FPS (1536 SPF)
Compression mode            : Lossy
Stream size                 : 83.6 MiB (11%)
Title                       : Original
Language                    : English
Service kind                : Complete Main
Default                     : No
Forced                      : No
Скріншоти

Дубльовано творчим об'єднанням:

На озвучення серіалу проходить ЗБІР КОШТІВ


Авторський реліз (завантажувати можна без реєстрації)
 Трекер:    Зареєстрований   

Завантажити / скачати мультфільм українською



відео для новачків



 Зареєстрований:   2020-11-09 22:27
 Розмір:   1.4 GB 
 Оцінка мультсеріалу:   8.9/10 (Голосів: 9)
   
death8 
Частий відвідувач


З нами з: 09.05.10
Востаннє: 17.02.21
Повідомлень: 34

2020-09-05 21:14  
Дякую за вашу працю.
AnubiS 
VIP


З нами з: 10.05.09
Востаннє: 06.03.21
Повідомлень: 415

2020-09-05 21:28  
Чекатемемо на продовження )
mrMad-Cat 
Новенький


З нами з: 21.02.14
Востаннє: 05.03.21
Повідомлень: 11

2020-10-12 02:21  
І після третього, пліз перший сезон Rolleyes (1)
Masanchick 
VIP


З нами з: 08.04.11
Востаннє: 06.03.21
Повідомлень: 1237

2020-10-12 11:15  
mrMad-Cat
Це буде через кілька років, якщо темпи збору грошей на озвучку продовжаться в такому ж дусі

AnubiS 
VIP


З нами з: 10.05.09
Востаннє: 06.03.21
Повідомлень: 415

2020-10-12 16:34  
Masanchick
Саме так... нажаль...((

BMK12 
Відео Гуртом - підтримка та поширення
Відео Гуртом - підтримка та поширення


З нами з: 13.04.09
Востаннє: 06.03.21
Повідомлень: 3821

2020-10-13 21:24  
Все ж, надто дорого для цього мультсеріалу - у нього мало прихильників.
AnubiS 
VIP


З нами з: 10.05.09
Востаннє: 06.03.21
Повідомлень: 415

2020-10-15 15:27  
BMK12 написано:
Все ж, надто дорого

Ну, як на мене, треба зважати на переклад: професійний дубльований

Цікава ідея 
VIP


З нами з: 25.12.11
Востаннє: 06.03.21
Повідомлень: 823

2020-11-09 22:28  
Друзі, ми дублювали 2-у серію.
Підтримайте переклад та дубляж українською. Реквізити в описі.


Бажаємо всім приємного перегляду!

sasha_ark 
Частий відвідувач


З нами з: 09.11.19
Востаннє: 04.03.21
Повідомлень: 35

2020-12-01 17:41  
Шикарний мульт. Дякую студії. Люди, кидайте донати!
mrMad-Cat 
Новенький


З нами з: 21.02.14
Востаннє: 05.03.21
Повідомлень: 11

2021-02-02 00:46  
Є у когось ідеї як розрекламувати збір коштів? Шикарний серіал! Це як аватар. Обов'язково треба перекласти!
BMK12 
Відео Гуртом - підтримка та поширення
Відео Гуртом - підтримка та поширення


З нами з: 13.04.09
Востаннє: 06.03.21
Повідомлень: 3821

2021-02-02 12:49  
mrMad-Cat, ну це не єдиний реліз. Ще є інше озвучення.
mrMad-Cat 
Новенький


З нами з: 21.02.14
Востаннє: 05.03.21
Повідомлень: 11

2021-02-02 13:12  
BMK12, ну звичайно. Але мене цікавить саме цей. Тому й питаю, може є в когось ідеї та аналогічна зацікавленість привернути увагу до цього. Я поки у фейсбуку поширюю, але щось не дуже виходить.
Ваш часовий пояс: GMT + 2 Години

Нова тема   Відповісти