Полювання на "Червоний Жовтень" / The Hunt for Red October (1990) 1080p 2xUkr/Eng | Sub Ukr/Eng

Нові коментарі

Нова тема   Відповісти
Автор Повідомлення
Anonymous 







2020-08-04 23:53  
Полювання на "Червоний Жовтень" / The Hunt for Red October (1990) 1080p 2xUkr/Eng | Sub Ukr/Eng


Оригінальний постер:





Жанр: пригодницький, трилер, бойовик
Країна: США



Кінокомпанія: Paramount Pictures
Режисер: Джон МакТірнан
Актори: Шон Коннері, Алек Болдуін, Скотт Гленн, Сем Ніл, Джеймс Ерл Джонс, Джосс Екленд, Річард Джордан, Пітер Ферт, Тім Каррі, Кортні Б. Венс

Сюжет:
Найсучасніший радянський атомний підводний човен «Красный Октябрь» здатний порушити крихкий стратегічний баланс між США і СРСР. Її капітан Раміус вирішує передати субмарину в руки американців.

Тривалість: 02:15:07
Якість: 1080p
Відео:
Кодек:
Розмір кадру: 12.5 Мбіт/с
Бітрейт: 1918 x 818

Аудіо #1:
Мова: українська
Переклад: багатоголосий закадровий [Інтер]

Кодек: 2.0
Бітрейт: 192 Кбіт/с

Аудіо #2:
Мова: українська
Переклад: багатоголосий закадровий [ICTV]

Кодек: 2.0
Бітрейт: 192 Кбіт/с

Аудіо #3:
Мова: англійська
Переклад: Оригінал
Кодек: 5.1
Бітрейт: 1509 Кбіт/с

Субтитри #1:
Мова: українська | Повні
Тип: програмні (м'які)
Формат: *.srt
Джерело: Netflix

Субтитри #2:
Мова: англійська | Повні
Тип: програмні (м'які)
Формат: *.srt

Info


General
Unique ID : 304887207866842524353926807393976021151 (0xE55F23EC9C3D13D4E653D3D3AF89709F)
Format :
Format version : Version 4
File size : 13.9 GiB
Duration : 2 h 15 min
Overall bit rate : 14.7 Mb/s
Movie name : Полювання на Червоний Жовтень / Hunt for Red October (1990) 1080p [2xUkrEng][SubEng] [Hurtom]
Encoded date : UTC 2020-08-05 17:27:46
Writing application : v46.0.0 ('No Deeper Escape') 64-bit
Writing library : libebml v1.3.10 + v1.5.2
Attachments : poster_ukr.jpg / poster_eng.jpg

Video
ID : 1
Format : AVC
Format/Info : Advanced Video Codec
Format profile : [email protected]
Format settings : CABAC / 5 Ref Frames
Format settings, CABAC : Yes
Format settings, Reference fra : 5 frames
Codec ID : V_MPEG4/ISO/AVC
Duration : 2 h 15 min
Bit rate : 12.5 Mb/s
Width : 1 918 pixels
Height : 818 pixels
Display aspect ratio : 2.35:1
Frame rate mode : Constant
Frame rate : 23.976 (24000/1001) FPS
Color space : YUV
Chroma subsampling : 4:2:0
Bit depth : 8 bits
Scan type : Progressive
Bits/(Pixel*Frame) : 0.333
Stream size : 11.8 GiB (85%)
Title : Hunt for Red October (1990) 1080p
Writing library : core 157 r2935 545de2f
Encoding settings : cabac=1 / ref=5 / deblock=1:-3:-3 / analyse=0x3:0x133 / me=umh / subme=10 / psy=1 / psy_rd=1.00:0.00 / mixed_ref=1 / me_range=24 / chroma_me=1 / trellis=2 / 8x8dct=1 / cqm=0 / deadzone=21,11 / fast_pskip=0 / chroma_qp_offset=-2 / threads=18 / lookahead_threads=3 / sliced_threads=0 / nr=0 / decimate=1 / interlaced=0 / bluray_compat=0 / constrained_intra=0 / bframes=8 / b_pyramid=2 / b_adapt=2 / b_bias=0 / direct=3 / weightb=1 / open_gop=0 / weightp=2 / keyint=240 / keyint_min=24 / scenecut=40 / intra_refresh=0 / rc_lookahead=60 / rc=crf / mbtree=1 / crf=14.0 / qcomp=0.60 / qpmin=0 / qpmax=69 / qpstep=4 / vbv_maxrate=62500 / vbv_bufsize=78125 / crf_max=0.0 / nal_hrd=none / filler=0 / ip_ratio=1.40 / aq=1:1.00
Language : English
Default : Yes
Forced : No
Color range : Limited
Color primaries : BT.709
Transfer characteristics : BT.709
Matrix coefficients : BT.709

Audio #1
ID : 2
Format : AC-3
Format/Info : Audio Coding 3
Commercial name : Dolby Digital
Codec ID : A_AC3
Duration : 2 h 15 min
Bit rate mode : Constant
Bit rate : 192 kb/s
Channel(s) : 2 channels
Channel layout : L R
Sampling rate : 48.0 kHz
Frame rate : 31.250 FPS (1536 SPF)
Compression mode : Lossy
Stream size : 186 MiB (1%)
Title : MVO [Інтер] 2.0 @ 192 Кбіт/с
Language : Ukrainian
Service kind : Complete Main
Default : Yes
Forced : No

Audio #2
ID : 3
Format : AC-3
Format/Info : Audio Coding 3
Commercial name : Dolby Digital
Codec ID : A_AC3
Duration : 2 h 15 min
Bit rate mode : Constant
Bit rate : 448 kb/s
Channel(s) : 6 channels
Channel layout : L R C LFE Ls Rs
Sampling rate : 48.0 kHz
Frame rate : 31.250 FPS (1536 SPF)
Compression mode : Lossy
Stream size : 433 MiB (3%)
Title : MVO [ICTV] 2.0 @ 192 Кбіт/с
Language : Ukrainian
Service kind : Complete Main
Default : No
Forced : No

Audio #3
ID : 4
Format :
Format/Info : Digital Theater Systems
Codec ID : A_DTS
Duration : 2 h 15 min
Bit rate mode : Constant
Bit rate : 1 509 kb/s
Channel(s) : 6 channels
Channel layout : C L R Ls Rs LFE
Sampling rate : 48.0 kHz
Frame rate : 93.750 FPS (512 SPF)
Bit depth : 24 bits
Compression mode : Lossy
Stream size : 1.42 GiB (10%)
Title : [Оригінал] 5.1 @ 1509 Кбіт/с
Language : English
Default : No
Forced : No

Text #1
ID : 5
Format : UTF-8
Codec ID : S_TEXT/UTF8
Codec ID/Info : UTF-8 Plain Text
Duration : 2 h 14 min
Bit rate : 98 b/s
Count of elements : 1603
Stream size : 96.7 KiB (0%)
Title : Повні
Language : Ukrainian
Default : No
Forced : No

Text #2
ID : 6
Format : UTF-8
Codec ID : S_TEXT/UTF8
Codec ID/Info : UTF-8 Plain Text
Duration : 2 h 9 min
Bit rate : 64 b/s
Count of elements : 1530
Stream size : 61.0 KiB (0%)
Title : Повні
Language : English
Default : No
Forced : No

Menu
00:00:00.000 : :00:00:00.000
00:13:13.293 : :00:13:12.959
00:19:36.175 : :00:19:35.758
00:33:26.505 : :00:33:26.504
00:43:06.584 : :00:43:06.417
00:51:47.104 : :00:51:47.062
01:05:25.922 : :01:05:25.547
01:11:15.271 : :01:11:14.979
01:25:04.099 : :01:25:03.807
01:36:52.307 : :01:36:51.931
01:47:51.966 : :01:47:51.757
01:55:18.912 : :01:55:18.745
02:08:00.173 : :02:07:59.714
Скріншоти









Джерело:


Срібний реліз (на рейтинг впливає 50% завантаженого)
 Трекер:    Зареєстрований   

Завантажити / скачати фільм українською



відео для новачків



 Зареєстрований:   2020-08-05 20:50
 Розмір:   13.86 GB 
 Оцінка фільму:   8.7/10 (Голосів: 3)
   
leicheman 
Відео Гуртом - фільмокрай
Відео Гуртом - фільмокрай


З нами з: 03.07.14
Востаннє: 26.09.20
Повідомлень: 5430

2020-08-05 07:39  
del
kryk-v.ya. 
Попереджень: 1
Попереджень: 1 


З нами з: 14.02.14
Востаннє: 26.09.20
Повідомлень: 2246

2020-08-05 10:13  
Цитата:
Є укр субтитри

сюпрайз Happy Happy Happy

+380954897458 
VIP


З нами з: 02.06.17
Востаннє: 18.09.20
Повідомлень: 942

2020-08-05 12:26  
leicheman
kryk-v.ya.
І де їх шукати, де їх знайти?

kryk-v.ya. 
Попереджень: 1
Попереджень: 1 


З нами з: 14.02.14
Востаннє: 26.09.20
Повідомлень: 2246

2020-08-05 12:49  
+380954897458
що шукати?

+380954897458 
VIP


З нами з: 02.06.17
Востаннє: 18.09.20
Повідомлень: 942

2020-08-05 18:00  
kryk-v.ya.
Субтитри. Тут не написано шо вони є.

kryk-v.ya. 
Попереджень: 1
Попереджень: 1 


З нами з: 14.02.14
Востаннє: 26.09.20
Повідомлень: 2246

2020-08-05 18:51  
+380954897458 написано:
Субтитри. Тут не написано шо вони є.

я це зрозумів, просто жартую...тому і пишу бо автору тепер доведеться все переробляти...а це не дуже приємно...
заодно і відеоряд на ремастер здалося б ...

leicheman 
Відео Гуртом - фільмокрай
Відео Гуртом - фільмокрай


З нами з: 03.07.14
Востаннє: 26.09.20
Повідомлень: 5430

2020-08-05 19:23  
del
Anonymous 







2020-08-05 20:53  
leicheman
Де? я їх ніде не бачив

Додано через 1 годину 29 хвилин 21 секунду:

Додав субтитри українські, перезавантажте будь ласка

Ваш часовий пояс: GMT + 2 Години

Нова тема   Відповісти