Нескінченний поїзд (Сезон 3) / Infinity Train (Season 3) (2020) 1080p Ukr/Eng | Sub Ukr/Eng

Нові коментарі

Нова тема   Відповісти
Автор Повідомлення
Цікава ідея 
VIP


З нами з: 25.12.11
Востаннє: 06.03.21
Повідомлень: 823

2020-08-04 20:14  
Нескінченний поїзд (Сезон 3) / Infinity Train (Season 3) (2020) 1080p Ukr/Eng | Sub Ukr/Eng


Нескінченний поїзд (Сезон 3) / Infinity Train (Season 3) (2020) 1080p Ukr/Eng | Sub Ukr/Eng


Якщо вам сподобалося озвучення мультсеріалу,
то ви можете підтримати нас за посиланням
ТИЦЬ


Жанр: анімація, містика, фантастика, пригодницький
Країна: США



Кінокомпанія: Cartoon Network Studios, Warner Bros. Television Distribution
Режисер: Джилл Деніелс
Ролі озвучують: Ешлі Джонсон, Джеремі Кратчлі, Овен Денніс, Роббі Деймонд та інші.

Сюжет:
Серіал розповідає про пригоди звичайного школяра Джессі, який опинився на загадковому поїзді з нескінченною кількістю вагонів.


Озвучено ТО "Цікава Ідея" на замовлення сайту simpsonsua.tv


Тривалість: 1 серія: ~ 11 хв. (цілком серій: 10)
Перелік серій:

01. Вагон-мюзикл
02. Вагон-джунглі
03. Бальний вагон
04. Вагон Le Chat Chalet
05. Вагон Дзиґаря Барв
06. Вагон для пікніку
07. Вагон-каньйон золотокрилих зміїв
08. Вагон Гей-Хо-А
09. Вагон оригамі
10. Новий Апекс
Якість: 1080p
Відео:
кодек:
розмір кадру: 1920 x 1080
бітрейт: 8000 кб/с

Аудіо # 1:
мова: українська | "Цікава Ідея"
переклад: професійний багатоголосий закадровий
кодек: 2.0
бітрейт: 192 кб/с

Аудіо # 2:
мова: англійська
переклад: оригінал
кодек: 2.0
бітрейт: 384 кб/с

Субтитри # 1:
мова: українська
тип: програмні (м'які)
формат: *.srt

Субтитри # 2:
мова: англійська
тип: програмні (м'які)
формат: *.srt
Info
Код:
Format                      :
Format version              : Version 4
File size                   : 716 MiB
Duration                    : 11 min 21 s
Overall bit rate mode       : Variable
Overall bit rate            : 8 812 kb/s
Movie name                  : Нескінченний поїзд / Infinity Train - S03E01 (2020) 1080p [Ukr.Eng sub.Ukr.Eng] [Цікава Ідея]
Encoded date                : UTC 2020-08-16 10:25:54
Writing application         : v6.8.0 ('Theme for Great Cities') 32bit built on Mar  2 2014 21:27:07
Writing library             : libebml v1.3.0 + v1.4.1

Video
ID                          : 1
Format                      : AVC
Format/Info                 : Advanced Video Codec
Format profile              : [email protected]
Format settings             : CABAC / 4 Ref Frames
Format settings, CABAC      : Yes
Format settings, Reference  : 4 frames
Codec ID                    : V_MPEG4/ISO/AVC
Duration                    : 11 min 21 s
Bit rate mode               : Variable
Bit rate                    : 8 061 kb/s
Maximum bit rate            : 12.4 Mb/s
Width                       : 1 920 pixels
Height                      : 1 080 pixels
Display aspect ratio        : 16:9
Frame rate mode             : Constant
Frame rate                  : 23.976 (24000/1001) FPS
Color space                 : YUV
Chroma subsampling          : 4:2:0
Bit depth                   : 8 bits
Scan type                   : Progressive
Bits/(Pixel*Frame)          : 0.162
Stream size                 : 655 MiB (91%)
Default                     : Yes
Forced                      : No

Audio #1
ID                          : 2
Format                      : AC-3
Format/Info                 : Audio Coding 3
Commercial name             : Dolby Digital
Codec ID                    : A_AC3
Duration                    : 11 min 21 s
Bit rate mode               : Constant
Bit rate                    : 192 kb/s
Channel(s)                  : 2 channels
Channel layout              : L R
Sampling rate               : 48.0 kHz
Frame rate                  : 31.250 FPS (1536 SPF)
Bit depth                   : 16 bits
Compression mode            : Lossy
Stream size                 : 15.6 MiB (2%)
Title                       : Цікава Ідея
Language                    : Ukrainian
Service kind                : Complete Main
Default                     : Yes
Forced                      : No

Audio #2
ID                          : 3
Format                      : AC-3
Format/Info                 : Audio Coding 3
Commercial name             : Dolby Digital
Codec ID                    : A_AC3
Duration                    : 11 min 21 s
Bit rate mode               : Constant
Bit rate                    : 384 kb/s
Channel(s)                  : 2 channels
Channel layout              : L R
Sampling rate               : 48.0 kHz
Frame rate                  : 31.250 FPS (1536 SPF)
Bit depth                   : 16 bits
Compression mode            : Lossy
Stream size                 : 31.2 MiB (4%)
Title                       : Original
Language                    : English
Service kind                : Complete Main
Default                     : No
Forced                      : No

Text #1
ID                          : 4
Format                      : UTF-8
Codec ID                    : S_TEXT/UTF8
Codec ID/Info               : UTF-8 Plain Text
Title                       : Пісні
Language                    : Ukrainian
Default                     : Yes
Forced                      : No

Text #2
ID                          : 5
Format                      : UTF-8
Codec ID                    : S_TEXT/UTF8
Codec ID/Info               : UTF-8 Plain Text
Title                       : Українська
Language                    : Ukrainian
Default                     : No
Forced                      : No

Text #3
ID                          : 6
Format                      : UTF-8
Codec ID                    : S_TEXT/UTF8
Codec ID/Info               : UTF-8 Plain Text
Title                       : English
Language                    : English
Default                     : No
Forced                      : No
Скріншоти

Переклад: Повітряний Змій
Озвучено творчим об'єднанням:


Авторський реліз (завантажувати можна без реєстрації)
 Трекер:    Зареєстрований   

Завантажити / скачати мультфільм українською



відео для новачків



 Зареєстрований:   2020-09-06 14:49
 Розмір:   6.99 GB 
 Оцінка мультсеріалу:   10/10 (Голосів: 11)
   
13lf918 
Новенький


З нами з: 04.03.18
Востаннє: 05.03.21
Повідомлень: 11

2020-08-06 10:44  
Сюжет зовсім паршивий став порівняно з першими 2 сезонами. Зробити малолітніх злочинців головними героями це абсурд. Волохата малявка з мавпою теж не викликає симпатії.
Повітряний Змій 
Свій


З нами з: 06.01.16
Востаннє: 26.02.21
Повідомлень: 129

2020-08-07 05:33  
13lf918
а ви вже подивилися весь сезон, що робите такі висновки про сюжет?

bot 
робот


З нами з: 30.09.07
Востаннє: 26.05.05
Повідомлень: 27319

2020-08-16 22:35  
Тему перенесено з Анонси релізів до форуму Мультсеріали в HD


Цікава ідея

Повітряний Змій 
Свій


З нами з: 06.01.16
Востаннє: 26.02.21
Повідомлень: 129

2020-08-17 06:32  
Чорт, слідкував, слідкував, але все одно двічі місґендернув Тубу >_<
Повітряний Змій 
Свій


З нами з: 06.01.16
Востаннє: 26.02.21
Повідомлень: 129

2020-08-17 11:50  
До речі, спало на думку, що станеться, якщо руку з номером відірве.
Цікава ідея 
VIP


З нами з: 25.12.11
Востаннє: 06.03.21
Повідомлень: 823

2020-09-06 14:50  
Друзі, перекладено та озвучено 6-10 серії.
Сезон завершено!


Бажаємо всім приємного перегляду!

leicheman 
Відео Гуртом - фільмокрай
Відео Гуртом - фільмокрай


З нами з: 03.07.14
Востаннє: 06.03.21
Повідомлень: 5949

2020-09-06 20:05  
Шикарна шикарність) Але знову ж таки головна проблема мульта у його малій тривалості(((

P.S Прикра новина, але схоже є вилика ймовірність, що більше сезонів не буде((

Повітряний Змій 
Свій


З нами з: 06.01.16
Востаннє: 26.02.21
Повідомлень: 129

2020-09-06 23:49  
страшенно розчарований, що актор замінив "пуста" на "порожня" в останній серії (напевне, подумав, що це помилка з мого боку), тому не дотримався красивої ідеї передати null як "порожня", а void як "пуста", при цьому жінка зачитала правильно, і тому взагалі вийшла каша. meh.

leicheman написано:
що більше сезонів не буде

"не треба сумувати і сльози проливати". відомо тільки те, що на момент виходу 3 сезону керівництво ще не дало зелене світло на 4. до анонсу третього сезону ми так само нічого не знали про долю шоу, крім закликів Денніса дивитися активніше. тому все впирається в рейтинги, яких у вільному доступі немає, отже лишаються лише спекуляції.

Ваш часовий пояс: GMT + 2 Години

Нова тема   Відповісти