Червона Шапочка / Rotkäppchen (2012) 1080p Ukr/Ger

Нові коментарі

Нова тема   Відповісти
Останній раз роздавалося ssTAss (2020-09-25)
Автор Повідомлення
Anonymous 







2020-08-04 17:07  
Червона Шапочка / Rotkäppchen (2012) 1080p Ukr/Ger

DVD




Жанр: сімейний, фентезі
Країна: Німеччина



Кінокомпанія: Hessischer Rundfunk (HR), Kinderfilm
Режисер: Сібіла Тафель
Актори: Едґар Сельге, Амона Ассман, Марі Ґрубер, Фелікс Кляре

Сюжет:
Фільм за мотивами казки братів Грімм. Про безстрашну дівчинку, відважного мисливця і голодного вовка. У місті всі схвильовані: ходять чутки, що в околицях завівся вовк. Але місцевий мисливець впевнений у тому, що курку викрала лисиця. Червону Шапочку ці розмови зовсім не турбують: вона не боїться звірів і любить гуляти в лісі разом зі своєю улюбленою бабусею, яка живе в лісовому будиночку. Тільки лише боязкий хлопчик Антон дійсно впевнений, що в лісі завівся вовк, оскільки бачився з ним. Але хлопчикові ніхто не вірить, вважаючи його боягузом і фантазером...


Тривалість: 00:58:17
Якість:
Відео:
кодек:
розмір кадру: 1920 х 1080
бітрейт: 6500 кб/с

Аудіо # 1:
мова: українська
переклад: професійний дубльований
кодек: 2.0
бітрейт: 192 кб/с

Аудіо # 2:
мова: німецька
переклад: оригінал
кодек: 2.0
бітрейт: 192 кб/с

Джерело озвучення:

Звук взято з релізу
Info
Код:
General
Unique ID                                : 268997827817117918231167778708766937485 (0xCA5F18DF44CD77897F29A2EADAE9518D)
Complete name                            : Rotkäppchen (2012) 1080p [Ukr_Ger] [Hurtom].
Format                                   :
Format version                           : Version 4
File size                                : 2.80 GiB
Duration                                 : 58 min 17 s
Overall bit rate mode                    : Variable
Overall bit rate                         : 6 886 kb/s
Movie name                               : Червона Шапочка (2012)
Encoded date                             : UTC 2020-08-04 13:42:25
Writing application                      : v49.0.0 ('Sick Of Losing Soulmates') 64-bit
Writing library                          : libebml v1.4.0 + v1.6.1
Cover                                    : Yes
Attachments                              : cover.jpg

Video
ID                                       : 1
Format                                   : AVC
Format/Info                              : Advanced Video Codec
Format profile                           : [email protected]
Format settings                          : CABAC / 2 Ref Frames
Format settings, CABAC                   : Yes
Format settings, Reference frames        : 2 frames
Codec ID                                 : V_MPEG4/ISO/AVC
Duration                                 : 58 min 17 s
Bit rate mode                            : Variable
Bit rate                                 : 6 500 kb/s
Maximum bit rate                         : 8 200 kb/s
Width                                    : 1 920 pixels
Height                                   : 1 080 pixels
Display aspect ratio                     : 16:9
Frame rate mode                          : Constant
Frame rate                               : 50.000 FPS
Color space                              : YUV
Chroma subsampling                       : 4:2:0
Bit depth                                : 8 bits
Scan type                                : Progressive
Bits/(Pixel*Frame)                       : 0.063
Stream size                              : 2.65 GiB (94%)
Language                                 : German
Default                                  : Yes
Forced                                   : No

Audio #1
ID                                       : 2
Format                                   : AC-3
Format/Info                              : Audio Coding 3
Commercial name                          : Dolby Digital
Codec ID                                 : A_AC3
Duration                                 : 58 min 17 s
Bit rate mode                            : Constant
Bit rate                                 : 192 kb/s
Channel(s)                               : 2 channels
Channel layout                           : L R
Sampling rate                            : 48.0 kHz
Frame rate                               : 31.250 FPS (1536 SPF)
Compression mode                         : Lossy
Stream size                              : 80.1 MiB (3%)
Language                                 : Ukrainian
Service kind                             : Complete Main
Default                                  : Yes
Forced                                   : Yes

Audio #2
ID                                       : 3
Format                                   : LC
Format/Info                              : Advanced Audio Codec Low Complexity
Codec ID                                 : A_AAC-2
Duration                                 : 58 min 17 s
Bit rate                                 : 192 kb/s
Channel(s)                               : 2 channels
Channel layout                           : L R
Sampling rate                            : 48.0 kHz
Frame rate                               : 46.875 FPS (1024 SPF)
Compression mode                         : Lossy
Stream size                              : 78.7 MiB (3%)
Language                                 : German
Default                                  : No
Forced                                   : No
Скріншоти





Джерело:


 Трекер:    Зареєстрований   

Завантажити / скачати фільм українською



відео для новачків



 Зареєстрований:   2020-08-04 17:07
 Розмір:   2.8 GB 
 Оцінка фільму:   10/10 (Голосів: 6)
   
Інші релізи
   Червона Шапочка / Rotkäppchen (2012) 720p Ukr/Ger ssTAss  1 / 0   1.5 GB   2019-12-17 23:03 
   Червона шапочка / Rotkäppchen (2012) НТН  1 / 0   698 MB   2014-01-11 15:47 
al_romashko 
Новенький


З нами з: 06.01.13
Востаннє: 13.09.20
Повідомлень: 6

2020-08-04 20:46  
Побачив назву фільму німецькою - перелякався, що порево виклали! Wide grin
GelioS_(UA) 
Свій


З нами з: 14.06.15
Востаннє: 22.09.20
Повідомлень: 64

2020-08-05 14:10  
al_romashko написано:
Побачив назву фільму німецькою - перелякався, що порево виклали!


Знаючи якість німецьких казок - краще буду дивитись Шапочку в полуничці Wide grin

Wensun 
Поважний учасник


З нами з: 20.01.09
Востаннє: 23.09.20
Повідомлень: 180

2020-08-08 19:05  
al_romashko
ідентично ! Wide grin

Ваш часовий пояс: GMT + 2 Години

Нова тема   Відповісти