Дика природа / The Wild (2006) AVC Ukr/Eng | Sub Eng

Нові коментарі

Нова тема   Відповісти
Автор Повідомлення
staf777 
Відео Гуртом - підтримка та поширення
Відео Гуртом - підтримка та поширення


З нами з: 16.11.16
Востаннє: 31.10.20
Повідомлень: 4250

2020-08-04 06:55  
Дика природа / The Wild (2006) AVC Ukr/Eng | Sub Eng

Дика природа / The Wild (2006) AVC Ukr/Eng | Sub Eng


Жанр: анімація, сімейний, комедія, пригодницький
Країна: США



Кіностудія / кінокомпанія: Buena Vista Pictures
Режисер: Стів Вільямс
Ролі озвучують: Кіфер Сазерленд, Джеймс Белуші, Едді Іззард, Джанін Гарофало, Вільям Шетнер, Річард Кайнд, Грег Сайпс, Колін Хей, Майлз Марсік, Джек Де Сена

Сюжет:
Левеня Раяна розлучили з його батьком і з нью-йоркського зоопарку відправили на кораблі в Африку. Його друзі по звіринцю - коала, крокодил, хамелеон, жираф і білка - вирішують допомогти царю звірів знайти сина і, втікши із зоопарку, відправляються на пошуки Раяна ...


Тривалість: 01:21:35
Якість: AVC
Відео:
кодек:
розмір кадру: 1024x552
бітрейт: 1968 кб/с

Аудіо # 1:
мова: українська
переклад: професійний дубльований
кодек: 2.0 (стерео)
бітрейт: 192 кб/с

Інформація про дубляж
Переклад: Олега Пашина
Режисер дубляжу: Алла Пасікова
Звукорежисер: Олександр Мостовенко
Координатор дубляжу: Катерина Фуртас
Ролі дублювали: Тарас Нестеренко, Микола Боклан, Людмила Ардельян, Назар Задніпровський, Володимир Ніколаєнко, Юрій Коваленко, Борис Георгієвський, Микола Луценко, Євген Сінчуков, Ярослав Чорненький, Дмитро Завадський, Євген Малуха та інші.
Мультфільм дубльовано AdiozProduction Studio у 2008 році.


Аудіо # 2:
мова: англійська
переклад: оригінал
кодек: 5.1
бітрейт: 448 кб/с

Субтитри:
мова: англійська (завантажити)
тип: програмні (м'які)
формат: *.srt
MI
General
Unique ID : 142162318421967198917959473516933549019 (0x6AF377732DC165F41CD3EE997C2C0BDB)
Complete name : Z:\Мультфільми AVC\The Wild (2006) AVC [UKR_ENG] [Hurtom].
Format :
Format version : Version 4
File size : 1.49 GiB
Duration : 1 h 21 min
Overall bit rate : 2 610 kb/s
Movie name : Дика природа / The Wild (2006) AVC [UKR_ENG] [Hurtom]
Encoded date : UTC 2020-08-04 16:39:24
Writing application : v46.0.0 ('No Deeper Escape') 64-bit
Writing library : libebml v1.3.10 + v1.5.2
Cover : Yes
Attachments : cover.jpg

Video
ID : 1
Format : AVC
Format/Info : Advanced Video Codec
Format profile : [email protected]
Format settings : CABAC / 9 Ref Frames
Format settings, CABAC : Yes
Format settings, Reference : 9 frames
Codec ID : V_MPEG4/ISO/AVC
Duration : 1 h 21 min
Bit rate : 1 968 kb/s
Width : 1 024 pixels
Height : 552 pixels
Display aspect ratio : 1.85:1
Frame rate mode : Constant
Frame rate : 23.976 (24000/1001) FPS
Color space : YUV
Chroma subsampling : 4:2:0
Bit depth : 8 bits
Scan type : Progressive
Bits/(Pixel*Frame) : 0.145
Stream size : 1.12 GiB (75%)
Title : Bol'shoe.Puteshestvie.2006...potroks
Writing library : core 116 r2019M 9cc407d
Encoding settings : cabac=1 / ref=10 / deblock=1:-2:-2 / analyse=0x3:0x133 / me=umh / subme=9 / psy=1 / psy_rd=1.00:0.20 / mixed_ref=1 / me_range=32 / chroma_me=1 / trellis=1 / 8x8dct=1 / cqm=0 / deadzone=21,11 / fast_pskip=1 / chroma_qp_offset=-3 / threads=8 / sliced_threads=0 / nr=0 / decimate=1 / interlaced=0 / bluray_compat=0 / constrained_intra=0 / bframes=3 / b_pyramid=1 / b_adapt=2 / b_bias=0 / direct=3 / weightb=1 / open_gop=0 / weightp=2 / keyint=230 / keyint_min=23 / scenecut=40 / intra_refresh=0 / rc_lookahead=40 / rc=2pass / mbtree=1 / bitrate=1968 / ratetol=1.0 / qcomp=0.60 / qpmin=10 / qpmax=51 / qpstep=4 / cplxblur=20.0 / qblur=0.5 / ip_ratio=1.40 / aq=1:1.00
Language : English
Default : Yes
Forced : No

Audio #1
ID : 2
Format : AC-3
Format/Info : Audio Coding 3
Commercial name : Dolby Digital
Codec ID : A_AC3
Duration : 1 h 21 min
Bit rate mode : Constant
Bit rate : 192 kb/s
Channel(s) : 2 channels
Channel layout : L R
Sampling rate : 48.0 kHz
Frame rate : 31.250 FPS (1536 SPF)
Compression mode : Lossy
Stream size : 112 MiB (7%)
Title : AdiozProduction Studio
Language : Ukrainian
Service kind : Complete Main
Default : Yes
Forced : Yes

Audio #2
ID : 3
Format : AC-3
Format/Info : Audio Coding 3
Commercial name : Dolby Digital
Codec ID : A_AC3
Duration : 1 h 21 min
Bit rate mode : Constant
Bit rate : 448 kb/s
Channel(s) : 6 channels
Channel layout : L R C LFE Ls Rs
Sampling rate : 48.0 kHz
Frame rate : 31.250 FPS (1536 SPF)
Compression mode : Lossy
Stream size : 261 MiB (17%)
Title : 5.1 448 kbps
Language : English
Service kind : Complete Main
Default : No
Forced : No

Text #1
ID : 4
Format : UTF-8
Codec ID : S_TEXT/UTF8
Codec ID/Info : UTF-8 Plain Text
Duration : 1 h 21 min
Bit rate : 68 b/s
Count of elements : 1434
Stream size : 41.1 KiB (0%)
Title : Full
Language : English
Default : No
Forced : No

Text #2
ID : 5
Format : UTF-8
Codec ID : S_TEXT/UTF8
Codec ID/Info : UTF-8 Plain Text
Duration : 1 h 21 min
Bit rate : 76 b/s
Count of elements : 1578
Stream size : 45.8 KiB (0%)
Title : SDH
Language : English
Default : No
Forced : No



Подяка пану xlim за запис звуку з ТБ і пану karvai0 за синхронізацію звуку.

Джерело:


 Трекер:    Зареєстрований   

Завантажити / скачати мультфільм українською



відео для новачків



 Зареєстрований:   2020-08-04 19:41
 Розмір:   1.49 GB 
 Оцінка мультфільму:   10/10 (Голосів: 5)
   
Інші релізи
   Дика природа / The Wild (2006) 1080p H.265 Ukr/Eng | Sub Eng -Star-Lord-  1 / 0   4.73 GB   2020-08-03 21:45 
   Дика природа / The Wild (2006) 1080p Ukr/Eng | Sub Eng ratbol  2 / 0   6.97 GB   2013-10-14 18:21 
   Дика природа / The Wild (2006) 720p Ukr/Eng | Sub Eng ratbol  2 / 0   3.72 GB   2013-10-14 18:19 
   Дика природа / The Wild (2006) Ukr/Eng | Sub Eng Gelios  1 / 0   1.61 GB   2012-07-26 16:01 
bot 
робот


З нами з: 30.09.07
Востаннє: 26.05.05
Повідомлень: 26013

2020-08-04 19:41  
Тему перенесено з Анонси релізів до форуму Мультфільми


staf777

Ваш часовий пояс: GMT + 2 Години

Нова тема   Відповісти