Поселенці / Barkskins (Сезон 1) (2020) 1080p Ukr/Eng | Sub Eng

Нові коментарі

Нова тема   Відповісти
Автор Повідомлення
sergiyko.5 
Забанено
Забанено


З нами з: 25.02.16
Востаннє: 29.10.20
Повідомлень: 3650

2020-08-03 22:50  
Поселенці / Barkskins (Сезон 1) (2020) 1080p Ukr/Eng | Sub Eng


Поселенці / Barkskins (Сезон 1) (2020) 1080p Ukr/Eng | Sub Eng

Жанр: драма
Країна: США
Кінокомпанія: Elwood Reid Inc., 21st Television, National Geographic
Режисер: Елвуд Рейд
Актори: Девід Тьюліс, Марша Гей Харден, Анайрін Барнард та інші

Сюжет:
Серіал "Поселенці", знятий за мотивами бестселера лауреата Пулітцерівської премії Енні Пру, розповідає про долю групи вигнанців та мрійників, - які пробуючи забути своє минуле, долаючи нескінченні труднощі і злидні та конкуруючи між собою, намагаються побудувати на перехресті цивілізацій Новий світ.




Тривалість: 00:51:46 серія (загалом 8 серій з 8)
Якість:

Відео: кодек: розмір кадру: 1920 х 1080 бітрейт: 8360 кб/с
Аудіо # 1: мова: українська озвучення: багатоголосе закадрове кодек: 2.0 бітрейт: 192 кб/с
Озвучення: National Geographic
Аудіо # 2: мова: англійська озвучення: оригінал кодек: + 5.1 бітрейт: 640 кб/с
Субтитри: мова: англійська тип: програмні (м'які) формат: *.srt
Перелік серій:
01. New France
02. The Turtle King
03. The Law of Two
04. The Sugared Plum
05. Buttermilk
06. The Wobble
07. Bees in a Bottle
08. The Black Sun
Про файл:
General
Unique ID : 125250114398164961659736318099519411763 (0x5E3A4B69F882E25B4D37BD79FC979633)
Complete name : D:\Documents\Torrents\FILMS\Barkskins S01 1080p \Barkskins.S01E01.1080p..Ukr.Eng.
Format :
Format version : Version 4
File size : 3.32 GiB
Duration : 51 min 45 s
Overall bit rate : 9 197 kb/s
Movie name : Barkskins 1080p by sergiyko
Encoded date : UTC 2020-08-03 20:45:59
Writing application : v47.0.0 ('Black Flag') 64-bit
Writing library : libebml v1.3.10 + v1.5.2

Video
ID : 1
Format : AVC
Format/Info : Advanced Video Codec
Format profile : [email protected]
Format settings : CABAC / 4 Ref Frames
Format settings, CABAC : Yes
Format settings, Reference : 4 frames
Codec ID : V_MPEG4/ISO/AVC
Duration : 51 min 45 s
Bit rate mode : Constant
Bit rate : 8 362 kb/s
Nominal bit rate : 10 000 kb/s
Width : 1 920 pixels
Height : 960 pixels
Display aspect ratio : 2.000
Frame rate mode : Constant
Frame rate : 23.976 (24000/1001) FPS
Color space : YUV
Chroma subsampling : 4:2:0
Bit depth : 8 bits
Scan type : Progressive
Bits/(Pixel*Frame) : 0.189
Stream size : 3.02 GiB (91%)
Title : S01E01
Language : English
Default : Yes
Forced : No
Color range : Limited
Color primaries : BT.709
Transfer characteristics : BT.709
Matrix coefficients : BT.709

Audio #1
ID : 2
Format : AC-3
Format/Info : Audio Coding 3
Commercial name : Dolby Digital
Codec ID : A_AC3
Duration : 51 min 45 s
Bit rate mode : Constant
Bit rate : 192 kb/s
Channel(s) : 2 channels
Channel layout : L R
Sampling rate : 48.0 kHz
Frame rate : 31.250 FPS (1536 SPF)
Compression mode : Lossy
Stream size : 71.1 MiB (2%)
Title : MVO
Language : Ukrainian
Service kind : Complete Main
Default : Yes
Forced : Yes

Audio #2
ID : 3
Format : E-AC-3
Format/Info : Enhanced AC-3
Commercial name : Dolby Digital Plus
Codec ID : A_EAC3
Duration : 51 min 45 s
Bit rate mode : Constant
Bit rate : 640 kb/s
Channel(s) : 6 channels
Channel layout : L R C LFE Ls Rs
Sampling rate : 48.0 kHz
Frame rate : 31.250 FPS (1536 SPF)
Compression mode : Lossy
Stream size : 237 MiB (7%)
Title : Original
Language : English
Service kind : Complete Main
Default : No
Forced : No

Text
ID : 4
Format : UTF-8
Codec ID : S_TEXT/UTF8
Codec ID/Info : UTF-8 Plain Text
Duration : 51 min 38 s
Bit rate : 56 b/s
Count of elements : 783
Stream size : 21.5 KiB (0%)
Title : English
Language : English
Default : No
Forced : No
Скріншоти:


Запис/зведення: sergiyko


Бронзовий реліз (на рейтинг впливає 75% завантаженого)
 Трекер:    Зареєстрований   

Завантажити / скачати серіал українською



відео для новачків



 Зареєстрований:   2020-08-25 15:38
 Розмір:   24.45 GB 
 Оцінка серіалу:   8.7/10 (Голосів: 10)
   
feron9 
Попереджень: 1
Попереджень: 1 


З нами з: 07.11.17
Востаннє: 05.12.20
Повідомлень: 40

2020-08-04 08:40  
sergiyko.5
Дякую. Подивимось.

Nick777v 
Поважний учасник


З нами з: 24.12.13
Востаннє: 05.12.20
Повідомлень: 236

2020-08-04 13:48  
Запропоную переклади серій.
1. Нова Франція
2. Черепашачий король
3. Цукрова слива
4. Закон двох
5. Маслянка
6. Коливання
7. Бджоли в пляшці
8. Чорне сонце

sergiyko.5 
Забанено
Забанено


З нами з: 25.02.16
Востаннє: 29.10.20
Повідомлень: 3650

2020-08-05 17:06  
Nick777v
Дякую. Але додам офіційний переклад, якщо він буде.

sergiyko.5 
Забанено
Забанено


З нами з: 25.02.16
Востаннє: 29.10.20
Повідомлень: 3650

2020-08-11 20:48  
Додав 3,4 серії.
sergiyko.5 
Забанено
Забанено


З нами з: 25.02.16
Востаннє: 29.10.20
Повідомлень: 3650

2020-08-18 00:03  
Додав 5,6 серії.
sergiyko.5 
Забанено
Забанено


З нами з: 25.02.16
Востаннє: 29.10.20
Повідомлень: 3650

2020-08-25 15:38  
Додав 7,8 серії.
ziben 
Новенький


З нами з: 18.08.15
Востаннє: 04.12.20
Повідомлень: 15

2020-08-28 08:31  
станьте хтось на роздачу(
Ваш часовий пояс: GMT + 2 Години

Нова тема   Відповісти