Скарб Амазонки (Скарби Амазонки, Welcome to the Jungle) / The Rundown (2003) 1080p H.265 2xUkr/Eng | Sub Ukr/Eng

Нові коментарі

Нова тема   Відповісти
Автор Повідомлення
Anonymous 







2020-08-03 22:42  
Скарб Амазонки (Скарби Амазонки, Welcome to the Jungle) / The Rundown (2003) 1080p H.265 2xUkr/Eng | Sub Ukr/Eng

Скарб Амазонки (Скарби Амазонки, Welcome to the Jungle) / The Rundown (2003) 1080p H.265 2xUkr/Eng | Sub Ukr/Eng


Жанр: екшн, пригодницький, комедія
Країна: США
Кінокомпанія: Columbia Pictures Corporation, Universal Pictures, WWE Films
Режисер: Пітер Берг [Peter Berg]
Актори: Двейн "Скеля" Джонсон [Dwayne Johnson], Шон Вільям Скотт [Seann William Scott], Росаріо Доусон [Rosario Dawson], Крістофер Вокен [Christopher Walken], Евен Бремнер [Ewen Bremner], Джон Грайс [Jon Gries]

Сюжет:
З мафією ніколи не можна сперечатися, особливо якщо ти їм винен. Так вийшло і з Беком - інтелігентним і дуже сильним хлопцем, якому доведеться їхати в джунглі Амазонки, щоб розплатитися з боргами.

Десь там загубився недолугий син "хрещеного батька" - аферист-невдаха Тревіс, якого тато дуже хоче бачити вдома цілим і неушкодженим.

Приїхавши на місце Бек розуміє, що шансів на успіх у нього дуже мало, адже Тревіс перейшов дорогу місцевому авторитету Хетчеру в гонитві за золотом індіанців. Йому нічого не залишається, як включитися в погоню за скарбом, інакше він привезе хлопця у вакуумній упаковці.

Тривалість: 01:44:15
Якість:

Відео:
кодек: H.265 (HEVC)
розмір кадру: 1920 x 816
бітрейт: 5 999 кб/с
бітова глибина: 10 біт

Увага! Перед завантаженням переконайтесь, що ваш пристрій відтворення (та/або ПЗ) підтримує H.265 (HEVC)

Аудіо # 1:
мова: українська
переклад: багатоголосий закадровий ,
кодек: AC-3 2.0
бітрейт: 192 кб/с

Аудіо # 2:
мова: українська
переклад: багатоголосий закадровий
кодек: AC-3 2.0
бітрейт: 192 кб/с

Аудіо # 3:
мова: англійська
переклад: оригінал
кодек: TrueHD 5.1
бітрейт: 1644 кб/с

Аудіо # 4:
мова: англійська
переклад: коментарі режисера Пітера Берга та актора Двейна Джонсона
кодек: AC-3 2.0
бітрейт: 192 кб/с

Аудіо # 5:
мова: англійська
переклад: коментарі продюсерів Марка Абрахама та Кевіна Міллера
кодек: AC-3 2.0
бітрейт: 192 кб/с

Субтитри # 1: (Full)
мова: українська
тип: програмні (м'які)
формат: *.srt

Субтитри # 2-5: (Full, SDH, Commentary by director Peter Berg, actor Dwayne Johnson, Commentary by producers Marc Abraham, Kevin Misher)
мова: англійська
тип: пререндерні
формат: *.pgs


Info
Код:
General
Unique ID                                : 144808789760003771335734417845475191277 (0x6CF1288F95A685601B41CC4A16FDA9ED)
Complete name                            : The Rundown (2003) 1080p H.265 [2xUKR_ENG] [Hurtom].
Format                                   :
Format version                           : Version 4
File size                                : 6.22 GiB
Duration                                 : 1 h 44 min
Overall bit rate mode                    : Variable
Overall bit rate                         : 8 537 kb/s
Movie name                               : Скарб Амазонки / Скарби Амазонки / Welcome to the Jungle / The Rundown (2003)
Encoded date                             : UTC 2020-08-03 15:03:58
Writing application                      : v20.0.0 ('I Am The Sun') 64-bit
Writing library                          : libebml v1.3.5 + v1.4.8
Cover                                    : Yes
Attachments                              : Cover.jpg

Video
ID                                       : 1
Format                                   : HEVC
Format/Info                              : High Efficiency Video Coding
Format profile                           : Main [email protected]@High
Codec ID                                 : V_MPEGH/ISO/HEVC
Duration                                 : 1 h 44 min
Bit rate                                 : 5 999 kb/s
Width                                    : 1 920 pixels
Height                                   : 816 pixels
Display aspect ratio                     : 2.35:1
Frame rate mode                          : Constant
Frame rate                               : 23.976 (24000/1001) FPS
Color space                              : YUV
Chroma subsampling                       : 4:2:0
Bit depth                                : 10 bits
Bits/(Pixel*Frame)                       : 0.160
Stream size                              : 4.37 GiB (70%)
Title                                    : Скарб Амазонки / Скарби Амазонки / Welcome to the Jungle / The Rundown (2003)
Writing library                          : x265 2.6+22-ff02513b92c0:[Windows][GCC 7.1.0][64 bit] 10bit
Encoding settings                        : cpuid=1050111 / frame-threads=5 / numa-pools=4 / wpp / no-pmode / no-pme / no-psnr / no-ssim / log-level=3 / input-csp=1 / input-res=1920x816 / interlace=0 / total-frames=0 / level-idc=0 / high-tier=1 / uhd-bd=0 / ref=5 / allow-non-conformance / no-repeat-headers / annexb / no-aud / no-hrd / info / hash=0 / no-temporal-layers / open-gop / min-keyint=24 / keyint=240 / gop-lookahead=0 / bframes=10 / b-adapt=2 / b-pyramid / bframe-bias=0 / rc-lookahead=40 / lookahead-slices=5 / scenecut=40 / radl=0 / no-intra-refresh / ctu=64 / min-cu-size=8 / no-rect / no-amp / max-tu-size=32 / tu-inter-depth=3 / tu-intra-depth=3 / limit-tu=0 / rdoq-level=0 / dynamic-rd=0.00 / no-ssim-rd / signhide / no-tskip / nr-intra=0 / nr-inter=0 / no-constrained-intra / strong-intra-smoothing / max-merge=3 / limit-refs=3 / no-limit-modes / me=2 / subme=7 / merange=57 / temporal-mvp / weightp / weightb / no-analyze-src-pics / deblock=-3:-3 / no-sao / no-sao-non-deblock / rd=4 / no-early-skip / rskip / no-fast-intra / no-tskip-fast / no-cu-lossless / no-b-intra / no-splitrd-skip / rdpenalty=0 / psy-rd=2.00 / psy-rdoq=0.00 / no-rd-refine / no-lossless / cbqpoffs=0 / crqpoffs=0 / rc=crf / crf=18.5 / qcomp=0.60 / qpstep=4 / stats-write=0 / stats-read=0 / vbv-maxrate=50000 / vbv-bufsize=35714 / vbv-init=0.9 / crf-max=0.0 / crf-min=0.0 / ipratio=1.40 / pbratio=1.30 / aq-mode=1 / aq-strength=1.00 / cutree / zone-count=0 / no-strict-cbr / qg-size=32 / no-rc-grain / qpmax=69 / qpmin=0 / no-const-vbv / sar=1 / overscan=0 / videoformat=5 / range=0 / colorprim=1 / transfer=1 / colormatrix=1 / chromaloc=0 / display-window=0 / max-cll=0,0 / min-luma=0 / max-luma=1023 / log2-max-poc-lsb=8 / vui-timing-info / vui-hrd-info / slices=1 / no-opt-qp-pps / no-opt-ref-list-length-pps / no-multi-pass-opt-rps / scenecut-bias=0.05 / no-opt-cu-delta-qp / no-aq-motion / no-hdr / no-hdr-opt / no-dhdr10-opt / analysis-save=(null) / analysis-load=(null) / analysis-reuse-level=5 / scale-factor=0 / refine-intra=0 / refine-inter=0 / refine-mv=0 / no-limit-sao / ctu-info=0 / no-lowpass-dct / refine-mv-type=0 / copy-pic=1
Language                                 : English
Default                                  : Yes
Forced                                   : No
Color range                              : Limited
Color primaries                          : BT.709
Transfer characteristics                 : BT.709
Matrix coefficients                      : BT.709

Audio #1
ID                                       : 2
Format                                   : AC-3
Format/Info                              : Audio Coding 3
Commercial name                          : Dolby Digital
Codec ID                                 : A_AC3
Duration                                 : 1 h 44 min
Bit rate mode                            : Constant
Bit rate                                 : 192 kb/s
Channel(s)                               : 2 channels
Channel layout                           : L R
Sampling rate                            : 48.0 kHz
Frame rate                               : 31.250 FPS (1536 SPF)
Compression mode                         : Lossy
Delay relative to video                  : 2 s 200 ms
Stream size                              : 143 MiB (2%)
Title                                    : / 2.0 Ch / 192 kbps / MVO / ICTV, Novy Kanal
Language                                 : Ukrainian
Service kind                             : Complete Main
Default                                  : Yes
Forced                                   : Yes

Audio #2
ID                                       : 3
Format                                   : AC-3
Format/Info                              : Audio Coding 3
Commercial name                          : Dolby Digital
Codec ID                                 : A_AC3
Duration                                 : 1 h 44 min
Bit rate mode                            : Constant
Bit rate                                 : 192 kb/s
Channel(s)                               : 2 channels
Channel layout                           : L R
Sampling rate                            : 48.0 kHz
Frame rate                               : 31.250 FPS (1536 SPF)
Compression mode                         : Lossy
Delay relative to video                  : 2 s 0 ms
Stream size                              : 143 MiB (2%)
Title                                    : / 2.0 Ch / 192 kbps / MVO / Kanal Ukraina
Language                                 : Ukrainian
Service kind                             : Complete Main
Default                                  : No
Forced                                   : No

Audio #3
ID                                       : 4
Format                                   : MLP FBA
Format/Info                              : Meridian Lossless Packing FBA
Commercial name                          : Dolby TrueHD
Codec ID                                 : A_TRUEHD
Duration                                 : 1 h 44 min
Bit rate mode                            : Variable
Bit rate                                 : 1 643 kb/s
Maximum bit rate                         : 3 267 kb/s
Channel(s)                               : 6 channels
Channel layout                           : L R C LFE Ls Rs
Sampling rate                            : 48.0 kHz
Frame rate                               : 1 200.000 FPS (40 SPF)
Compression mode                         : Lossless
Stream size                              : 1.20 GiB (19%)
Title                                    : TrueHD / 5.1 Ch / 1643 kbps / Original
Language                                 : English
Default                                  : No
Forced                                   : No

Audio #4
ID                                       : 5
Format                                   : AC-3
Format/Info                              : Audio Coding 3
Commercial name                          : Dolby Digital
Codec ID                                 : A_AC3
Duration                                 : 1 h 44 min
Bit rate mode                            : Constant
Bit rate                                 : 192 kb/s
Channel(s)                               : 2 channels
Channel layout                           : L R
Sampling rate                            : 48.0 kHz
Frame rate                               : 31.250 FPS (1536 SPF)
Compression mode                         : Lossy
Stream size                              : 143 MiB (2%)
Title                                    : / 2.0 Ch / 192 kbps / Original / Commentary by director Peter Berg, actor Dwayne Johnson
Language                                 : English
Service kind                             : Complete Main
Default                                  : No
Forced                                   : No

Audio #5
ID                                       : 6
Format                                   : AC-3
Format/Info                              : Audio Coding 3
Commercial name                          : Dolby Digital
Codec ID                                 : A_AC3
Duration                                 : 1 h 44 min
Bit rate mode                            : Constant
Bit rate                                 : 192 kb/s
Channel(s)                               : 2 channels
Channel layout                           : L R
Sampling rate                            : 48.0 kHz
Frame rate                               : 31.250 FPS (1536 SPF)
Compression mode                         : Lossy
Stream size                              : 143 MiB (2%)
Title                                    : / 2.0 Ch / 192 kbps / Original / Commentary by producers Marc Abraham, Kevin Misher
Language                                 : English
Service kind                             : Complete Main
Default                                  : No
Forced                                   : No

Text #1
ID                                       : 7
Format                                   : UTF-8
Codec ID                                 : S_TEXT/UTF8
Codec ID/Info                            : UTF-8 Plain Text
Duration                                 : 1 h 43 min
Bit rate                                 : 134 b/s
Count of elements                        : 1081
Stream size                              : 103 KiB (0%)
Title                                    : Full
Language                                 : Ukrainian
Default                                  : No
Forced                                   : No

Text #2
ID                                       : 8
Format                                   : PGS
Muxing mode                              : zlib
Codec ID                                 : S_HDMV/PGS
Codec ID/Info                            : Picture based subtitle format used on BDs/HD-DVDs
Duration                                 : 1 h 36 min
Bit rate                                 : 29.4 kb/s
Count of elements                        : 2108
Stream size                              : 20.4 MiB (0%)
Title                                    : Full
Language                                 : English
Default                                  : No
Forced                                   : No

Text #3
ID                                       : 9
Format                                   : PGS
Muxing mode                              : zlib
Codec ID                                 : S_HDMV/PGS
Codec ID/Info                            : Picture based subtitle format used on BDs/HD-DVDs
Duration                                 : 1 h 36 min
Bit rate                                 : 23.3 kb/s
Count of elements                        : 2383
Stream size                              : 16.2 MiB (0%)
Title                                    : SDH
Language                                 : English
Default                                  : No
Forced                                   : No

Text #4
ID                                       : 10
Format                                   : PGS
Muxing mode                              : zlib
Codec ID                                 : S_HDMV/PGS
Codec ID/Info                            : Picture based subtitle format used on BDs/HD-DVDs
Duration                                 : 1 h 37 min
Bit rate                                 : 45.9 kb/s
Count of elements                        : 2485
Stream size                              : 32.0 MiB (1%)
Title                                    : Commentary by director Peter Berg, actor Dwayne Johnson
Language                                 : English
Default                                  : No
Forced                                   : No

Text #5
ID                                       : 11
Format                                   : PGS
Muxing mode                              : zlib
Codec ID                                 : S_HDMV/PGS
Codec ID/Info                            : Picture based subtitle format used on BDs/HD-DVDs
Duration                                 : 1 h 37 min
Bit rate                                 : 52.9 kb/s
Count of elements                        : 2621
Stream size                              : 37.0 MiB (1%)
Title                                    : Commentary by producers Marc Abraham, Kevin Misher
Language                                 : English
Default                                  : No
Forced                                   : No

Menu
00:00:00.000                             : en:The Retrieval Expert
00:08:58.996                             : en:One Last Job
00:11:31.816                             : en:Brazil
00:14:33.873                             : en:Flower for Mariana
00:16:29.113                             : en:One Man's Refrigerator
00:20:48.956                             : en:Option C
00:26:56.698                             : en:Enjoy the Fall
00:29:17.881                             : en:The Wrong Foot
00:31:57.832                             : en:They Got My Tooth
00:33:46.858                             : en:No Breaks
00:36:29.979                             : en:Pee Break
00:38:48.326                             : en:Monkey Business
00:42:17.034                             : en:Rebels
00:48:35.120                             : en:Why We Fight
00:52:06.957                             : en:The Cleanup
00:54:22.968                             : en:A Deal
00:58:42.977                             : en:Beyond the Moving Curtain
01:05:30.301                             : en:Konlobos (with a "K")
01:09:13.482                             : en:I Wanna Go Home
01:10:36.065                             : en:Change of Plan
01:14:44.688                             : en:The Wrong Choice
01:16:15.320                             : en:Hell in El Dorado
01:21:46.318                             : en:Force of One
01:27:10.058                             : en:Hatcher's Last Option
01:30:18.079                             : en:Delivering on the Deal
01:32:49.397                             : en:A Headache Like You
01:35:49.160                             : en:No More Pushing
01:37:19.124                             : en:End Titles
Світлини




Джерело: &
Особиста оцінка: 0 - не дивився


Срібний реліз (на рейтинг впливає 50% завантаженого)
 Трекер:    Зареєстрований   

Завантажити / скачати фільм українською



відео для новачків



 Зареєстрований:   2020-08-03 22:42
 Розмір:   6.22 GB 
 Оцінка фільму:   10/10 (Голосів: 1)
   
Ваш часовий пояс: GMT + 2 Години

Нова тема   Відповісти