Ідальго / Hidalgo (2004) 1080p H.265 Ukr/Eng | Sub Eng

Нові коментарі

Нова тема   Відповісти
Автор Повідомлення
Anonymous 







2020-08-03 22:32  
Ідальго / Hidalgo (2004) 1080p H.265 Ukr/Eng | Sub Eng

Ідальго / Hidalgo (2004) 1080p H.265 Ukr/Eng | Sub Eng


Жанр: бойовик, пригодницький, вестерн
Країна: США, Марокко
Кінокомпанія: Touchstone Pictures, Casey Silver Productions, Dune Films
Режисер: Джо Джонстон / Joe Johnston
Актори: Вігго Мортенсен / Viggo Mortensen, Зулейка Робінсон / Zuleikha Robinson, Омар Шаріф / Omar Sharif, Джей Кей Сіммонс / J.K. Simmons, Малькольм МакДауелл / Malcolm McDowell, Луіз Ломбард / Louise Lombard та інші

Сюжет:
"Океан вогню" - найпрестижніші перегони в історії. Щороку найкращі арабські скакуни змагаються в багатоденному марафоні по Аравійській пустелі. В 1890 році багатий шейх вперше запросив брати участь у змаганнях іноземця. Ним став американець Френк Гопкінс, найкращий ковбой та наїзник Дикого Заходу. Впливовий шейх поставив божевільні гроші на перемогу іноземця. Тепер його доля залежить від протистояння американського вискочки на мустангу по кличці Ідальго та найкращих арабських жеребців, керованих найвправнішими наїзниками-бедуїнами...

І далеко не всіх влаштовує перемога зухвалого янкі в традиційному арабському дербі, адже вона може принести одним - славу, а іншим - смерть. І для Френка перемога стає не тільки справою честі, але й єдиною можливістю вижити в жарких пісках безкрайньої пустелі ...

Тривалість: 02:16:24
Якість:

Відео:
кодек: H.265 (HEVC)
розмір кадру: 1920 x 802
бітрейт: 7 434 кб/с
бітова глибина: 10 біт

Увага! Перед завантаженням переконайтесь, що ваш пристрій відтворення (та/або ПЗ) підтримує H.265 (HEVC)

Аудіо # 1:
мова: українська
переклад: багатоголосий закадровий
кодек: AC-3 2.0
бітрейт: 192 кб/с

Аудіо # 2:
мова: англійська
переклад: оригінал
кодек: 5.1
бітрейт: 1511 кб/с

Субтитри # 1: (Full)
мова: англійська
тип: програмні (м'які)
формат: *.srt


Info
Код:
General
Unique ID                                : 259616001996178719553141368731623204238 (0xC350392583572B3968074C487323A58E)
Complete name                            : Hidalgo (2004) 1080p H.265 [UKR_ENG] [Hurtom].
Format                                   :
Format version                           : Version 4
File size                                : 8.71 GiB
Duration                                 : 2 h 16 min
Overall bit rate                         : 9 139 kb/s
Movie name                               : Ідальго / Hidalgo (2004)
Encoded date                             : UTC 2020-08-03 14:18:00
Writing application                      : v20.0.0 ('I Am The Sun') 64-bit
Writing library                          : libebml v1.3.5 + v1.4.8
Cover                                    : Yes
Attachments                              : Cover.jpg

Video
ID                                       : 1
Format                                   : HEVC
Format/Info                              : High Efficiency Video Coding
Format profile                           : Main [email protected]@High
Codec ID                                 : V_MPEGH/ISO/HEVC
Duration                                 : 2 h 16 min
Bit rate                                 : 7 434 kb/s
Width                                    : 1 920 pixels
Height                                   : 802 pixels
Display aspect ratio                     : 2.40:1
Frame rate mode                          : Constant
Frame rate                               : 23.976 (24000/1001) FPS
Color space                              : YUV
Chroma subsampling                       : 4:2:0
Bit depth                                : 10 bits
Bits/(Pixel*Frame)                       : 0.201
Stream size                              : 7.08 GiB (81%)
Title                                    : Ідальго / Hidalgo (2004)
Writing library                          : x265 3.3+2-gbe2d82093:[Windows][GCC 10.0.1][64 bit] 10bit
Encoding settings                        : cpuid=1111039 / frame-threads=4 / numa-pools=16 / wpp / no-pmode / no-pme / no-psnr / no-ssim / log-level=2 / input-csp=1 / input-res=1920x802 / interlace=0 / total-frames=196243 / level-idc=41 / high-tier=1 / uhd-bd=0 / ref=5 / no-allow-non-conformance / no-repeat-headers / annexb / no-aud / no-hrd / info / hash=0 / no-temporal-layers / open-gop / min-keyint=23 / keyint=240 / gop-lookahead=0 / bframes=16 / b-adapt=2 / b-pyramid / bframe-bias=0 / rc-lookahead=60 / lookahead-slices=1 / scenecut=40 / hist-scenecut=0 / radl=0 / no-splice / no-intra-refresh / ctu=32 / min-cu-size=8 / rect / amp / max-tu-size=32 / tu-inter-depth=4 / tu-intra-depth=4 / limit-tu=1 / rdoq-level=2 / dynamic-rd=0.00 / no-ssim-rd / signhide / no-tskip / nr-intra=0 / nr-inter=0 / no-constrained-intra / no-strong-intra-smoothing / max-merge=5 / limit-refs=3 / limit-modes / me=3 / subme=7 / merange=57 / temporal-mvp / no-frame-dup / hme / Level / merange / L0,L1,L2=16,32,57 / weightp / weightb / no-analyze-src-pics / deblock=-2:-1 / no-sao / no-sao-non-deblock / rd=6 / selective-sao=0 / no-early-skip / rskip / rskip-edge-threshold=0.050000 / no-fast-intra / no-tskip-fast / no-cu-lossless / b-intra / no-splitrd-skip / rdpenalty=0 / psy-rd=1.70 / psy-rdoq=0.80 / no-rd-refine / no-lossless / cbqpoffs=0 / crqpoffs=0 / rc=crf / crf=20.0 / qcomp=0.68 / qpstep=4 / stats-write=0 / stats-read=0 / vbv-maxrate=50000 / vbv-bufsize=50000 / vbv-init=0.9 / crf-max=0.0 / crf-min=0.0 / ipratio=1.40 / pbratio=1.30 / aq-mode=1 / aq-strength=1.00 / no-cutree / zone-count=0 / no-strict-cbr / qg-size=32 / no-rc-grain / qpmax=69 / qpmin=0 / no-const-vbv / sar=1 / overscan=0 / videoformat=5 / range=0 / colorprim=1 / transfer=1 / colormatrix=1 / chromaloc=0 / display-window=0 / cll=0,0 / min-luma=0 / max-luma=1023 / log2-max-poc-lsb=8 / vui-timing-info / vui-hrd-info / slices=1 / no-opt-qp-pps / no-opt-ref-list-length-pps / no-multi-pass-opt-rps / scenecut-bias=0.05 / hist-threshold=0.01 / no-opt-cu-delta-qp / no-aq-motion / no-hdr10 / no-hdr10-opt / no-dhdr10-opt / no-idr-recovery-sei / analysis-reuse-level=0 / analysis-save-reuse-level=0 / analysis-load-reuse-level=0 / scale-factor=0 / refine-intra=0 / refine-inter=0 / refine-mv=1 / refine-ctu-distortion=0 / no-limit-sao / ctu-info=0 / no-lowpass-dct / refine-analysis-type=0 / copy-pic=1 / max-ausize-factor=1.0 / no-dynamic-refine / no-single-sei / no-hevc-aq / no-svt / no-field / qp-adaptation-range=1.00 / no-scenecut-aware-qpconformance-window-offsets / right=0 / bottom=0
Language                                 : English
Default                                  : Yes
Forced                                   : No
Color range                              : Limited
Color primaries                          : BT.709
Transfer characteristics                 : BT.709
Matrix coefficients                      : BT.709

Audio #1
ID                                       : 2
Format                                   : AC-3
Format/Info                              : Audio Coding 3
Commercial name                          : Dolby Digital
Codec ID                                 : A_AC3
Duration                                 : 2 h 16 min
Bit rate mode                            : Constant
Bit rate                                 : 192 kb/s
Channel(s)                               : 2 channels
Channel layout                           : L R
Sampling rate                            : 48.0 kHz
Frame rate                               : 31.250 FPS (1536 SPF)
Compression mode                         : Lossy
Stream size                              : 187 MiB (2%)
Title                                    : / 2.0 Ch / 192 kbps / MVO / ICTV
Language                                 : Ukrainian
Service kind                             : Complete Main
Default                                  : Yes
Forced                                   : Yes

Audio #2
ID                                       : 3
Format                                   :
Format/Info                              : Digital Theater Systems
Codec ID                                 : A_DTS
Duration                                 : 2 h 16 min
Bit rate mode                            : Constant
Bit rate                                 : 1 510 kb/s
Channel(s)                               : 6 channels
Channel layout                           : C L R Ls Rs LFE
Sampling rate                            : 48.0 kHz
Frame rate                               : 93.750 FPS (512 SPF)
Bit depth                                : 24 bits
Compression mode                         : Lossy
Stream size                              : 1.44 GiB (17%)
Title                                    : / 5.1 Ch / 1509 kbps / Original
Language                                 : English
Default                                  : No
Forced                                   : No

Text
ID                                       : 4
Format                                   : UTF-8
Codec ID                                 : S_TEXT/UTF8
Codec ID/Info                            : UTF-8 Plain Text
Duration                                 : 2 h 6 min
Bit rate                                 : 33 b/s
Count of elements                        : 1044
Stream size                              : 31.3 KiB (0%)
Title                                    : Full
Language                                 : English
Default                                  : No
Forced                                   : No

Menu
00:00:00.000                             : en:Opening/Teaching Respect
00:04:00.115                             : en:Wounded Knee Creek
00:08:08.321                             : en:Buffalo Bill's Wild West Show
00:13:07.787                             : en:An Invitation Accepted
00:23:58.687                             : en:Arrival in a Strange World
00:31:04.613                             : en:The Sheikh of Sheikhs
00:39:29.993                             : en:The Journey Begins
00:50:55.719                             : en:Sandstorm!
00:58:42.394                             : en:Jazira's Visit
01:06:45.960                             : en:Raid and Abduction
01:12:21.796                             : en:Rescue
01:23:50.651                             : en:A Daughter Returned
01:30:35.805                             : en:The Race Continues
01:41:25.788                             : en:Treachery
01:49:23.640                             : en:Prayer to the Ancestors
01:55:24.209                             : en:To the Sea
02:01:13.558                             : en:Friends
02:03:51.466                             : en:Paid in Full/End Credits
Світлини




Джерело: &
Особиста оцінка: 0 - не дивився


Срібний реліз (на рейтинг впливає 50% завантаженого)
 Трекер:    Зареєстрований   

Завантажити / скачати фільм українською



відео для новачків



 Зареєстрований:   2020-08-03 22:32
 Розмір:   8.71 GB 
 Оцінка фільму:   10/10 (Голосів: 1)
   
Інші релізи
   Ідальго / Hidalgo (2004) AVC Ukr/Eng Arsenfpu  4 / 0   2.1 GB   2018-01-13 12:40 
   Ідальго / Hidalgo (2004) 720p Ukr/Eng | Sub Eng igor911  1 / 0   7.38 GB   2016-09-01 16:52 
   Ідальго / Hidalgo (2004) NemoInFire  1 / 0   2.18 GB   2012-11-16 21:44 
Ваш часовий пояс: GMT + 2 Години

Нова тема   Відповісти