Містер Лінк: загублена ланка еволюції / Missing Link (2019) Remux 1080p Ukr/Eng | Sub Eng

Нові коментарі

Нова тема   Відповісти
Автор Повідомлення
Anonymous 







2020-08-03 15:11  
Містер Лінк: загублена ланка еволюції / Missing Link (2019) Remux 1080p Ukr/Eng | Sub Eng

Містер Лінк: загублена ланка еволюції / Missing Link (2019) Remux 1080p Ukr/Eng | Sub Eng

Жанр: анімація, фентезі, пригоди, сімейний, комедія
Країна: США, Канада



Кінокомпанія: Laika Entertainment
Режисер: Кріс Батлер / Chris Butler
Ролі озвучують: Г'ю Джекман / Hugh Jackman, Зої Салдана / Zoe Saldana, Тімоті Оліфант / Timothy Olyphant, Емма Томпсон / Emma Thompson, Метт Лукас / Matt Lucas, Стівен Фрай / Stephen Fry, Зак Галіфіанакіс / Zach Galifianakis, Адам Годлі / Adam Godley та інші

Сюжет:
Безстрашний натураліст і винахідник Лайонел Фрост поставив перед собою задачу розповісти світу про існування різних створінь, про яких говорять лише у легендах. Його новим відкриттям стає Лінк, так звана «відсутня ланка», яка поєднує людство з його предками по еволюційній драбині.

Тривалість: 01:34:26
Якість: Remux 1080p

Відео:
кодек:
розмір кадру: 1920x1080
бітрейт: 32200 кб/с

Аудіо # 1:
мова: українська
переклад: професійний дубльований | Pie Post Production
кодек: 2.0 [stereo]
бітрейт: 192 кб/с

Аудіо # 2:
мова: англійська
переклад: оригінал
кодек: 5.1
бітрейт: 448 кб/с

Аудіо # 3:
мова: англійська
переклад: оригінал
кодек: TrueHD + Atmos 7.1
бітрейт: 4727 кб/с

Субтитри: (Forced, Full)
мова: англійська
тип: програмні (м'які)
формат: *.srt

Збережено оригінальні розділи, як на Blu-ray
Info
Код:

General
Complete name                            : Missing Link (2019) Blu-Ray Remux 1080p [ukr, eng] [ViDeO_Hurtom].
Format                                   :
Format version                           : Version 4
File size                                : 24.8 GiB
Duration                                 : 1 h 34 min
Overall bit rate mode                    : Variable
Overall bit rate                         : 37.7 Mb/s
Movie name                               : Містер Лінк: загублена ланка еволюції / Missing Link (2019)
Encoded date                             : UTC 2020-08-03 11:39:00
Writing application                      : v30.1.0 ('Forever And More') 64-bit
Writing library                          : libebml v1.3.6 + v1.4.9
Cover                                    : Yes
Attachments                              : cover.jpg

Video
ID                                       : 1
Format                                   : AVC
Format/Info                              : Advanced Video Codec
Format profile                           : [email protected]
Format settings                          : CABAC / 4 Ref Frames
Format settings, CABAC                   : Yes
Format settings, RefFrames               : 4 frames
Codec ID                                 : V_MPEG4/ISO/AVC
Duration                                 : 1 h 34 min
Bit rate mode                            : Variable
Bit rate                                 : 32.2 Mb/s
Maximum bit rate                         : 34.0 Mb/s
Width                                    : 1 920 pixels
Height                                   : 1 080 pixels
Display aspect ratio                     : 16:9
Frame rate mode                          : Constant
Frame rate                               : 23.976 (24000/1001) FPS
Color space                              : YUV
Chroma subsampling                       : 4:2:0
Bit depth                                : 8 bits
Scan type                                : Progressive
Bits/(Pixel*Frame)                       : 0.648
Stream size                              : 21.2 GiB (86%)
Title                                    : Missing.Link.2019.Remux 1080p
Default                                  : No
Forced                                   : No

Audio #1
ID                                       : 2
Format                                   : AC-3
Format/Info                              : Audio Coding 3
Commercial name                          : Dolby Digital
Codec ID                                 : A_AC3
Duration                                 : 1 h 34 min
Bit rate mode                            : Constant
Bit rate                                 : 192 kb/s
Channel(s)                               : 2 channels
Channel layout                           : L R
Sampling rate                            : 48.0 kHz
Frame rate                               : 31.250 FPS (1536 SPF)
Bit depth                                : 16 bits
Compression mode                         : Lossy
Stream size                              : 130 MiB (1%)
Title                                    : 2.0 | 192
Language                                 : Ukrainian
Service kind                             : Complete Main
Default                                  : Yes
Forced                                   : No

Audio #2
ID                                       : 3
Format                                   : AC-3
Format/Info                              : Audio Coding 3
Commercial name                          : Dolby Digital
Codec ID                                 : A_AC3
Duration                                 : 1 h 34 min
Bit rate mode                            : Constant
Bit rate                                 : 448 kb/s
Channel(s)                               : 6 channels
Channel layout                           : L R C LFE Ls Rs
Sampling rate                            : 48.0 kHz
Frame rate                               : 31.250 FPS (1536 SPF)
Bit depth                                : 16 bits
Compression mode                         : Lossy
Stream size                              : 303 MiB (1%)
Title                                    : 5.1 | 448
Language                                 : English
Service kind                             : Complete Main
Default                                  : No
Forced                                   : No

Audio #3
ID                                       : 4
Format                                   : MLP FBA 16-ch
Format/Info                              : Meridian Lossless Packing FBA with 16-channel presentation
Commercial name                          : Dolby TrueHD with Dolby Atmos
Codec ID                                 : A_TRUEHD
Duration                                 : 1 h 34 min
Bit rate mode                            : Variable
Bit rate                                 : 4 727 kb/s
Maximum bit rate                         : 8 430 kb/s
Channel(s)                               : 8 channels
Channel layout                           : L R C LFE Ls Rs Lb Rb
Sampling rate                            : 48.0 kHz
Frame rate                               : 1 200.000 FPS (40 SPF)
Compression mode                         : Lossless
Stream size                              : 3.12 GiB (13%)
Title                                    : TRUEHD 7.1 | 4727
Language                                 : English
Default                                  : No
Forced                                   : No
Number of dynamic objects                : 13
Bed channel count                        : 1 channel
Bed channel configuration                : LFE

Text #1
ID                                       : 5
Format                                   : UTF-8
Codec ID                                 : S_TEXT/UTF8
Codec ID/Info                            : UTF-8 Plain Text
Duration                                 : 8 s 49 ms
Bit rate                                 : 140 b/s
Count of elements                        : 5
Stream size                              : 141 Bytes (0%)
Title                                    : Forced
Language                                 : English
Default                                  : No
Forced                                   : No

Text #2
ID                                       : 6
Format                                   : UTF-8
Codec ID                                 : S_TEXT/UTF8
Codec ID/Info                            : UTF-8 Plain Text
Duration                                 : 1 h 34 min
Bit rate                                 : 65 b/s
Count of elements                        : 1615
Stream size                              : 45.2 KiB (0%)
Title                                    : Full
Language                                 : English
Default                                  : No
Forced                                   : No

Menu
00:00:00.000                             : en:Chapter 01
00:05:12.521                             : en:Chapter 02
00:08:53.616                             : en:Chapter 03
00:12:29.207                             : en:Chapter 04
00:15:35.852                             : en:Chapter 05
00:20:18.551                             : en:Chapter 06
00:24:26.840                             : en:Chapter 07
00:29:55.127                             : en:Chapter 08
00:33:14.659                             : en:Chapter 09
00:36:40.949                             : en:Chapter 10
00:40:33.389                             : en:Chapter 11
00:43:45.164                             : en:Chapter 12
00:47:24.300                             : en:Chapter 13
00:52:50.876                             : en:Chapter 14
00:55:14.478                             : en:Chapter 15
00:58:51.903                             : en:Chapter 16
00:59:59.721                             : en:Chapter 17
01:02:54.729                             : en:Chapter 18
01:05:15.495                             : en:Chapter 19
01:08:17.176                             : en:Chapter 20
01:11:00.339                             : en:Chapter 21
01:13:20.438                             : en:Chapter 22
01:21:51.198                             : en:Chapter 23
01:24:48.625                             : en:Chapter 24
Скріншоти




Над доріжкою працювали: xslim, Sando7

Джерело:
Особиста оцінка: 0 - не дивився


Золотий реліз (завантажене не впливає на рейтинг)
 Трекер:    Зареєстрований   

Завантажити / скачати мультфільм українською



відео для новачків



 Зареєстрований:   2020-08-03 15:11
 Розмір:   24.83 GB 
 Оцінка мультфільму:   9.7/10 (Голосів: 9)
   
Ваш часовий пояс: GMT + 2 Години

Нова тема   Відповісти