Мережа / The Net (1995) 1080p H.265 2xUkr/Eng | Sub 2xUkr/Eng

Нові коментарі

Нова тема   Відповісти
Автор Повідомлення
Anonymous 







2020-08-03 00:49  
Мережа / The Net (1995) 1080p H.265 2xUkr/Eng | Sub 2xUkr/Eng

Мережа / The Net (1995) 1080p H.265 2xUkr/Eng | Sub 2xUkr/Eng


Жанр: екшн, кримінальний, драма, трилер
Країна: США
Кінокомпанія: Columbia Pictures Corporation, Winkler Films
Режисер: Ірвін Вінклер / Irwin Winkler
Актори: Сандра Баллок / Sandra Bullock, Джеремі Нортем / Jeremy Northam, Денніс Міллер / Dennis Miller, Дайан Бейкер / Diane Baker, Венді Ґейзелл / Wendy Gazelle, Кен Говард / Ken Howard, Рей МакКіннон / Ray McKinnon та інші

Сюжет:
Існування Анжели Беннет повністю комп'ютеризовано. Вона не надає цьому значення, але одного дня її стирають! Гуляючи по комп'ютерній мережі, Анжела випадково перебігає дорогу преторіанцям. Преторіанцями називають себе члени організованої групи хакерів, на рахунку яких зломи урядових систем безпек, біржові крахи, авіакатастрофи та вбивства, вчинені з використанням тільки однієї зброї - всесвітньої мережі інтернет. Анжела стає наступною жертвою в списку хакерів.

Вони стирають її особову справу і вписують в біографію Анжели нове ім'я та злочинне минуле. Згідно з сфабрикованими даними, Анжела - небезпечна злочинниця, яка знаходиться в розшуку. Вона повинна знайти в собі сили побороти злих комп'ютерних геніїв.

Тривалість: 01:54:18
Якість:

Відео:
кодек: H.265 (HEVC)
розмір кадру: 1920 x 1040
бітрейт: 13 331 кб/с
бітова глибина: 10 біт

Увага! Перед завантаженням переконайтесь, що ваш пристрій відтворення (та/або ПЗ) підтримує H.265 (HEVC)

Аудіо # 1:
мова: українська
переклад: багатоголосий закадровий
кодек: AC-3 2.0
бітрейт: 192 кб/с

Аудіо # 2:
мова: українська
переклад: багатоголосий закадровий
кодек: AC-3 2.0
бітрейт: 192 кб/с

Аудіо # 3:
мова: англійська
переклад: оригінал
кодек: 5.1
бітрейт: 1510 кб/с

Субтитри # 1-2: (Full from Netflix, Full by urij546724)
мова: українська
тип: програмні (м'які)
формат: *.srt

Субтитри # 3: (Full)
мова: англійська
тип: програмні (м'які)
формат: *.srt


Info
Код:
General
Unique ID                                : 102502352193815181462928569296646890225 (0x4D1D3C256C1E38CFBFA4A47BF890E2F1)
Complete name                            : The Net (1995) 1080p H.265 [2xUKR_ENG] [Hurtom].
Format                                   :
Format version                           : Version 4
File size                                : 12.2 GiB
Duration                                 : 1 h 54 min
Overall bit rate                         : 15.2 Mb/s
Movie name                               : Мережа / The Net (1995)
Encoded date                             : UTC 2020-08-12 23:25:13
Writing application                      : v20.0.0 ('I Am The Sun') 64-bit
Writing library                          : libebml v1.3.5 + v1.4.8
Cover                                    : Yes
Attachments                              : Cover.jpg

Video
ID                                       : 1
Format                                   : HEVC
Format/Info                              : High Efficiency Video Coding
Format profile                           : Main [email protected]@Main
Codec ID                                 : V_MPEGH/ISO/HEVC
Duration                                 : 1 h 54 min
Bit rate                                 : 13.3 Mb/s
Width                                    : 1 920 pixels
Height                                   : 1 040 pixels
Display aspect ratio                     : 1.85:1
Frame rate mode                          : Constant
Frame rate                               : 23.976 (24000/1001) FPS
Color space                              : YUV
Chroma subsampling                       : 4:2:0
Bit depth                                : 10 bits
Bits/(Pixel*Frame)                       : 0.278
Stream size                              : 10.6 GiB (88%)
Title                                    : Мережа / The Net (1995)
Writing library                          : x265 3.3+4-g85d84b2af:[Windows][MSVC 1925][64 bit] 10bit
Encoding settings                        : cpuid=1111039 / frame-threads=3 / numa-pools=8 / wpp / no-pmode / no-pme / no-psnr / no-ssim / log-level=2 / input-csp=1 / input-res=1920x1040 / interlace=0 / total-frames=164447 / level-idc=0 / high-tier=1 / uhd-bd=0 / ref=5 / no-allow-non-conformance / no-repeat-headers / annexb / no-aud / no-hrd / info / hash=0 / no-temporal-layers / open-gop / min-keyint=23 / keyint=240 / gop-lookahead=0 / bframes=12 / b-adapt=2 / b-pyramid / bframe-bias=0 / rc-lookahead=60 / lookahead-slices=0 / scenecut=40 / hist-scenecut=0 / radl=0 / no-splice / no-intra-refresh / ctu=64 / min-cu-size=8 / rect / amp / max-tu-size=32 / tu-inter-depth=4 / tu-intra-depth=4 / limit-tu=1 / rdoq-level=2 / dynamic-rd=0.00 / no-ssim-rd / signhide / no-tskip / nr-intra=0 / nr-inter=0 / no-constrained-intra / no-strong-intra-smoothing / max-merge=5 / limit-refs=3 / no-limit-modes / me=3 / subme=7 / merange=57 / temporal-mvp / no-frame-dup / no-hme / weightp / weightb / no-analyze-src-pics / deblock=-3:-3 / no-sao / no-sao-non-deblock / rd=6 / selective-sao=0 / no-early-skip / rskip / no-fast-intra / no-tskip-fast / no-cu-lossless / b-intra / no-splitrd-skip / rdpenalty=0 / psy-rd=2.00 / psy-rdoq=1.00 / no-rd-refine / no-lossless / cbqpoffs=0 / crqpoffs=0 / rc=crf / crf=18.9 / qcomp=0.60 / qpstep=4 / stats-write=0 / stats-read=0 / ipratio=1.40 / pbratio=1.30 / aq-mode=4 / aq-strength=0.80 / no-cutree / zone-count=1 / zones: / start-frame=159284 / end-frame=164439 / qp=36 / no-strict-cbr / qg-size=32 / no-rc-grain / qpmax=69 / qpmin=0 / no-const-vbv / sar=1 / overscan=0 / videoformat=5 / range=0 / colorprim=2 / transfer=2 / colormatrix=2 / chromaloc=0 / display-window=0 / cll=0,0 / min-luma=0 / max-luma=1023 / log2-max-poc-lsb=8 / vui-timing-info / vui-hrd-info / slices=1 / no-opt-qp-pps / no-opt-ref-list-length-pps / no-multi-pass-opt-rps / scenecut-bias=0.00 / hist-threshold=0.01 / no-opt-cu-delta-qp / no-aq-motion / no-hdr10 / no-hdr10-opt / no-dhdr10-opt / no-idr-recovery-sei / analysis-reuse-level=0 / analysis-save-reuse-level=0 / analysis-load-reuse-level=0 / scale-factor=0 / refine-intra=0 / refine-inter=0 / refine-mv=1 / refine-ctu-distortion=0 / no-limit-sao / ctu-info=0 / no-lowpass-dct / refine-analysis-type=0 / copy-pic=1 / max-ausize-factor=1.0 / no-dynamic-refine / no-single-sei / no-hevc-aq / no-svt / no-field / qp-adaptation-range=1.00 / no-scenecut-aware-qpconformance-window-offsets / right=0 / bottom=0
Language                                 : English
Default                                  : Yes
Forced                                   : No

Audio #1
ID                                       : 2
Format                                   : AC-3
Format/Info                              : Audio Coding 3
Commercial name                          : Dolby Digital
Codec ID                                 : A_AC3
Duration                                 : 1 h 54 min
Bit rate mode                            : Constant
Bit rate                                 : 192 kb/s
Channel(s)                               : 2 channels
Channel layout                           : L R
Sampling rate                            : 48.0 kHz
Frame rate                               : 31.250 FPS (1536 SPF)
Compression mode                         : Lossy
Stream size                              : 157 MiB (1%)
Title                                    : / 2.0 Ch / 192 kbps / MVO / AMC
Language                                 : Ukrainian
Service kind                             : Complete Main
Default                                  : Yes
Forced                                   : Yes

Audio #2
ID                                       : 3
Format                                   : AC-3
Format/Info                              : Audio Coding 3
Commercial name                          : Dolby Digital
Codec ID                                 : A_AC3
Duration                                 : 1 h 54 min
Bit rate mode                            : Constant
Bit rate                                 : 192 kb/s
Channel(s)                               : 2 channels
Channel layout                           : L R
Sampling rate                            : 48.0 kHz
Frame rate                               : 31.250 FPS (1536 SPF)
Compression mode                         : Lossy
Stream size                              : 157 MiB (1%)
Title                                    : / 2.0 Ch / 192 kbps / MVO / K1
Language                                 : Ukrainian
Service kind                             : Complete Main
Default                                  : No
Forced                                   : No

Audio #3
ID                                       : 4
Format                                   :
Format/Info                              : Digital Theater Systems
Codec ID                                 : A_DTS
Duration                                 : 1 h 54 min
Bit rate mode                            : Constant
Bit rate                                 : 1 509 kb/s
Channel(s)                               : 6 channels
Channel layout                           : C L R Ls Rs LFE
Sampling rate                            : 48.0 kHz
Frame rate                               : 93.750 FPS (512 SPF)
Bit depth                                : 24 bits
Compression mode                         : Lossy
Stream size                              : 1.20 GiB (10%)
Title                                    : / 5.1 Ch / 1509 kbps / Original
Language                                 : English
Default                                  : No
Forced                                   : No

Text #1
ID                                       : 5
Format                                   : UTF-8
Codec ID                                 : S_TEXT/UTF8
Codec ID/Info                            : UTF-8 Plain Text
Duration                                 : 1 h 53 min
Bit rate                                 : 81 b/s
Count of elements                        : 1172
Stream size                              : 67.4 KiB (0%)
Title                                    : Full from Netflix
Language                                 : Ukrainian
Default                                  : No
Forced                                   : No

Text #2
ID                                       : 6
Format                                   : UTF-8
Codec ID                                 : S_TEXT/UTF8
Codec ID/Info                            : UTF-8 Plain Text
Duration                                 : 1 h 50 min
Bit rate                                 : 65 b/s
Count of elements                        : 749
Stream size                              : 53.0 KiB (0%)
Title                                    : Full by urij546724
Language                                 : Ukrainian
Default                                  : No
Forced                                   : No

Text #3
ID                                       : 7
Format                                   : UTF-8
Codec ID                                 : S_TEXT/UTF8
Codec ID/Info                            : UTF-8 Plain Text
Duration                                 : 1 h 49 min
Bit rate                                 : 62 b/s
Count of elements                        : 1310
Stream size                              : 50.5 KiB (0%)
Title                                    : Full
Language                                 : English
Default                                  : No
Forced                                   : No

Menu
00:00:00.000                             : en:Start
00:02:45.039                             : en:The Last Hope
00:14:27.867                             : en:Respect the Elders
00:24:31.720                             : en:No Going Back
00:31:23.756                             : en:Carving a New Course
00:39:44.048                             : en:Can't Bear the Hunger
00:43:23.183                             : en:Road Rage Reunion
00:45:44.575                             : en:A Burning Need
00:57:32.198                             : en:Leaving No Trace
01:09:10.020                             : en:Relic of Memory
01:14:59.328                             : en:The Exile's Snare
01:17:05.579                             : en:Time for Answers
01:23:28.753                             : en:Truth and Legend
01:33:03.953                             : en:Impailing Interrogation
01:46:26.171                             : en:Father of the War
01:49:42.993                             : en:Bleeding the Map
02:01:09.512                             : en:02:01:09.512
Світлини




Джерело: &
Особиста оцінка: 0 - не дивився

Подяка пану leicheman за надані укр. субтитри


Срібний реліз (на рейтинг впливає 50% завантаженого)
 Трекер:    Зареєстрований   

Завантажити / скачати фільм українською



відео для новачків



 Зареєстрований:   2020-08-13 02:39
 Розмір:   12.16 GB 
 Оцінка фільму:   7.7/10 (Голосів: 6)
   
Інші релізи
   Мережа / The Net (1995) 2xUkr/Eng | Sub Ukr/Eng taraskill1  4 / 0   2.19 GB   2017-04-17 18:50 
   Мережа / The Net (1995) 720p Ukr/Eng | sub Ukr urij546724  0 / 0   4.72 GB   2011-05-06 00:17 
Akio Furukawa 
Свій


З нами з: 02.11.19
Востаннє: 24.09.20
Повідомлень: 105

2020-08-16 01:20  
Ну таке, на 1 раз, доволі примітивно навіть як на 1995 рік.
Не збагнув, навіщо…
… від Сандри Буллок вимагали ту дискету, коли ті преторіанці вже здобули ту програму безпосередньо в офісі компанії-розробника.
Ну й те, як кульхацкерка не блокує компа, відходячи, та 300 з чимось в IP-адресі взагалі смішно ^_^

Головний лиходій схожий на схудлого Гужву, а верховний злочинний бос недвозначно нагадує Біла Гейца

Ваш часовий пояс: GMT + 2 Години

Нова тема   Відповісти