Капітан Гак (Крюк) / Hook (1991) 1080p H.265 Ukr/Eng | Sub Eng

Нові коментарі

Нова тема   Відповісти
Автор Повідомлення
Anonymous 







2020-08-02 23:26  
Капітан Гак / Капітан Крюк / Hook (1991) 1080p H.265 Ukr/Eng | Sub Eng

Капітан Гак (Крюк) / Hook (1991) 1080p H.265 Ukr/Eng | Sub Eng


Жанр: пригодницький, казка, дитячий, сімейний, фантастика
Країна: США
Кінокомпанія: Amblin Entertainment, TriStar Pictures
Режисер: Стівен Спілберг / Steven Spielberg
Актори: Дастін Хоффман, Робін Вільямс, Джулія Робертс, Боб Хоскінс, Меггі Сміт, Керолайн Гудолл, Чарлі Корсмо, Ембер Скотт, Лорел Кронін, Філ Коллінз, Артур Мелет, Айзіа Робінсон

Сюжет:
Пітер Пен став дорослим і перестав бути Пітером Пеном. Тепер йому сорок років, у нього інше ім'я, сім'я і серйозна робота. Не залишилося й сліду від чудесного хлопця, який колись вмів літати ... Але старі вороги не забули хлопчика.

Капітан з гострим сталевим гаком замість руки знову кидає виклик своєму супротивникові, викравши його дітей. Пітер вирушає слідом за ним в чарівну країну, але щоб перемогти там, де живуть русалки, феї і однорукі пірати, йому доведеться знов навчитися літати.

Тривалість: 02:21:45
Якість:

Відео:
кодек: H.265 (HEVC)
розмір кадру: 1920 x 800
бітрейт: 8 888 кб/с
бітова глибина: 10 біт

Увага! Перед завантаженням переконайтесь, що ваш пристрій відтворення (та/або ПЗ) підтримує H.265 (HEVC)

Аудіо # 1:
мова: українська
переклад: багатоголосий закадровий
кодек: AC-3 2.0
бітрейт: 192 кб/с

Аудіо # 2:
мова: англійська
переклад: оригінал
кодек: 5.1
бітрейт: 1510 кб/с

Субтитри # 1: (Full)
мова: англійська
тип: програмні (м'які)
формат: *.srt


Info
Код:
General
Unique ID                                : 176507495819417954122670814290981933861 (0x84CA1B6EE2EB1D6292E29CB5C323D325)
Complete name                            : Hook (1991) 1080p H.265 [UKR_ENG] [Hurtom].
Format                                   :
Format version                           : Version 4
File size                                : 10.5 GiB
Duration                                 : 2 h 21 min
Overall bit rate                         : 10.6 Mb/s
Movie name                               : Капітан Гак / Капітан Крюк / Hook (1991)
Encoded date                             : UTC 2020-07-27 07:57:41
Writing application                      : v20.0.0 ('I Am The Sun') 64-bit
Writing library                          : libebml v1.3.5 + v1.4.8
Cover                                    : Yes
Attachments                              : Cover.jpg

Video
ID                                       : 1
Format                                   : HEVC
Format/Info                              : High Efficiency Video Coding
Format profile                           : Main [email protected]@High
Codec ID                                 : V_MPEGH/ISO/HEVC
Duration                                 : 2 h 21 min
Bit rate                                 : 8 888 kb/s
Width                                    : 1 920 pixels
Height                                   : 800 pixels
Display aspect ratio                     : 2.40:1
Frame rate mode                          : Constant
Frame rate                               : 23.976 (24000/1001) FPS
Color space                              : YUV
Chroma subsampling                       : 4:2:0
Bit depth                                : 10 bits
Bits/(Pixel*Frame)                       : 0.241
Stream size                              : 8.80 GiB (84%)
Title                                    : Капітан Гак / Капітан Крюк / Hook (1991)
Writing library                          : x265 3.3+4-g85d84b2af:[Windows][MSVC 1925][64 bit] 10bit
Encoding settings                        : cpuid=1111039 / frame-threads=3 / numa-pools=12 / wpp / no-pmode / no-pme / no-psnr / no-ssim / log-level=2 / input-csp=1 / input-res=1920x800 / interlace=0 / total-frames=203927 / level-idc=41 / high-tier=1 / uhd-bd=0 / ref=5 / no-allow-non-conformance / no-repeat-headers / annexb / no-aud / no-hrd / info / hash=0 / no-temporal-layers / open-gop / min-keyint=23 / keyint=240 / gop-lookahead=0 / bframes=12 / b-adapt=2 / b-pyramid / bframe-bias=0 / rc-lookahead=40 / lookahead-slices=0 / scenecut=40 / hist-scenecut=0 / radl=0 / no-splice / no-intra-refresh / ctu=64 / min-cu-size=8 / rect / amp / max-tu-size=32 / tu-inter-depth=4 / tu-intra-depth=4 / limit-tu=1 / rdoq-level=2 / dynamic-rd=0.00 / no-ssim-rd / signhide / no-tskip / nr-intra=0 / nr-inter=0 / no-constrained-intra / no-strong-intra-smoothing / max-merge=5 / limit-refs=3 / no-limit-modes / me=3 / subme=7 / merange=57 / temporal-mvp / no-frame-dup / no-hme / weightp / weightb / no-analyze-src-pics / deblock=-3:-3 / no-sao / no-sao-non-deblock / rd=6 / selective-sao=0 / no-early-skip / rskip / no-fast-intra / no-tskip-fast / no-cu-lossless / b-intra / no-splitrd-skip / rdpenalty=0 / psy-rd=2.00 / psy-rdoq=1.00 / no-rd-refine / no-lossless / cbqpoffs=0 / crqpoffs=0 / rc=crf / crf=18.7 / qcomp=0.60 / qpstep=4 / stats-write=0 / stats-read=0 / vbv-maxrate=50000 / vbv-bufsize=50000 / vbv-init=0.9 / crf-max=0.0 / crf-min=0.0 / ipratio=1.40 / pbratio=1.30 / aq-mode=4 / aq-strength=1.00 / no-cutree / zone-count=1 / zones: / start-frame=195320 / end-frame=203908 / qp=36 / no-strict-cbr / qg-size=32 / no-rc-grain / qpmax=69 / qpmin=0 / no-const-vbv / sar=1 / overscan=0 / videoformat=5 / range=0 / colorprim=2 / transfer=2 / colormatrix=2 / chromaloc=0 / display-window=0 / cll=0,0 / min-luma=0 / max-luma=1023 / log2-max-poc-lsb=8 / vui-timing-info / vui-hrd-info / slices=1 / no-opt-qp-pps / no-opt-ref-list-length-pps / no-multi-pass-opt-rps / scenecut-bias=0.00 / hist-threshold=0.01 / no-opt-cu-delta-qp / no-aq-motion / no-hdr10 / no-hdr10-opt / no-dhdr10-opt / no-idr-recovery-sei / analysis-reuse-level=0 / analysis-save-reuse-level=0 / analysis-load-reuse-level=0 / scale-factor=0 / refine-intra=0 / refine-inter=0 / refine-mv=1 / refine-ctu-distortion=0 / no-limit-sao / ctu-info=0 / no-lowpass-dct / refine-analysis-type=0 / copy-pic=1 / max-ausize-factor=1.0 / no-dynamic-refine / no-single-sei / no-hevc-aq / no-svt / no-field / qp-adaptation-range=1.00 / no-scenecut-aware-qpconformance-window-offsets / right=0 / bottom=0
Language                                 : English
Default                                  : Yes
Forced                                   : No

Audio #1
ID                                       : 2
Format                                   : AC-3
Format/Info                              : Audio Coding 3
Commercial name                          : Dolby Digital
Codec ID                                 : A_AC3
Duration                                 : 2 h 21 min
Bit rate mode                            : Constant
Bit rate                                 : 192 kb/s
Channel(s)                               : 2 channels
Channel layout                           : L R
Sampling rate                            : 48.0 kHz
Frame rate                               : 31.250 FPS (1536 SPF)
Compression mode                         : Lossy
Stream size                              : 195 MiB (2%)
Title                                    : / 2.0 Ch / 192 kbps / MVO / K1
Language                                 : Ukrainian
Service kind                             : Complete Main
Default                                  : Yes
Forced                                   : Yes

Audio #2
ID                                       : 3
Format                                   :
Format/Info                              : Digital Theater Systems
Codec ID                                 : A_DTS
Duration                                 : 2 h 21 min
Bit rate mode                            : Constant
Bit rate                                 : 1 509 kb/s
Channel(s)                               : 6 channels
Channel layout                           : C L R Ls Rs LFE
Sampling rate                            : 48.0 kHz
Frame rate                               : 93.750 FPS (512 SPF)
Bit depth                                : 24 bits
Compression mode                         : Lossy
Stream size                              : 1.49 GiB (14%)
Title                                    : / 5.1 Ch / 1509 kbps / Original
Language                                 : English
Default                                  : No
Forced                                   : No

Text
ID                                       : 4
Format                                   : UTF-8
Codec ID                                 : S_TEXT/UTF8
Codec ID/Info                            : UTF-8 Plain Text
Duration                                 : 2 h 14 min
Bit rate                                 : 47 b/s
Count of elements                        : 1545
Stream size                              : 46.9 KiB (0%)
Title                                    : Full
Language                                 : English
Default                                  : No
Forced                                   : No

Menu
00:00:00.000                             : en:Start
00:08:05.943                             : en:Granny Wendy
00:16:44.378                             : en:True Origins
00:23:37.624                             : en:"My God, the Children!"
00:30:14.395                             : en:"He's Come Back"
00:35:50.356                             : en:Tinkerbell
00:48:17.603                             : en:Pirate Town
00:58:14.199                             : en:Capt. James Hook
01:06:16.973                             : en:Cutting a Deal
01:11:26.532                             : en:The Lost Boys
01:22:03.543                             : en:"Oh, There You Are"
01:31:46.000                             : en:Ruminations & Plan
01:40:26.020                             : en:In Training
01:47:53.592                             : en:Lesson One
01:56:29.857                             : en:Feast for Imagination
02:08:10.057                             : en:"When You're Alone"
Світлини




Джерело: &
Особиста оцінка: 0 - не дивився


Срібний реліз (на рейтинг впливає 50% завантаженого)
 Трекер:    Зареєстрований   

Завантажити / скачати фільм українською



відео для новачків



 Зареєстрований:   2020-08-02 23:26
 Розмір:   10.49 GB 
 Оцінка фільму:   10/10 (Голосів: 1)
   
Інші релізи
   Капітан Крюк / Капітан Гак / Hook (1991) AVC Ukr/Eng | Sub Eng staf777  4 / 0   2.88 GB   2020-09-21 22:02 
   Капітан Гак (Крюк) / Hook (1991) 1080p Ukr/Eng | Sub Eng радик  4 / 0   13.31 GB   2018-06-09 13:58 
   Капітан Крюк (Гак) / Hook (1991) omm  3 / 0   1.46 GB   2014-08-21 09:38 
kolinos4 
Новенький


З нами з: 28.09.09
Востаннє: 18.01.21
Повідомлень: 13

2021-01-08 10:39  
Чудовий фільм!
Ваш часовий пояс: GMT + 2 Години

Нова тема   Відповісти