Формула 1. Сезон 2020. Етап 4. Гран-Прі Великої Британії. Гонка (02.08.2020) HDTV 1080p 50fps 2xUkr/Eng/Int

Нові коментарі

Нова тема   Відповісти
Автор Повідомлення
sergiyko.5 
VIP


З нами з: 25.02.16
Востаннє: 05.08.20
Повідомлень: 3301

2020-08-02 20:26  
Формула 1. Сезон 2020. Етап 4. Гран-Прі Великої Британії. Гонка (02.08.2020) HDTV 1080p 50fps 2xUkr/Eng/Int


Формула 1. Сезон 2020. Етап 4. Гран-Прі Великої Британії. Гонка (02.08.2020) HDTV 1080p 50fps 2xUkr/Eng/Int

Жанр: Перегони Формули 1
Країна: Велика Британія
Телеканал: Sky Sportі F1 HD
Коментар: Максим Подзігун, Роман Гончаров, анлійською

Опис:
Гонка четвертого етапу Гран-Прі Великої Британії 2020 року.


Якість: HDTV

Відео:кодек: розмір кадру: 1920 х 1080 бітрейт: 8250 кб/с 50 кад/с
Аудіо 1: мова: українська кодек: 2.0 бітрейт: 192 кб/с
Аудіо 2: мова: українська кодек: 2.0 бітрейт: 192 кб/с
Аудіо 3: мова: англійська кодек: 5.1 бітрейт: 384 кб/с
Аудіо 4: мова: - кодек: 2.0 бітрейт: 192 кб/с
Тривалість:
01:54:24
Про файл:
General
Unique ID : 84453280056831464144353859546032447506 (0x3F891C2F45B23F13DD9CABEBE6E52012)
Complete name : D:\Documents\Torrents\SPORT\Formula 1\F1.2020.04.GreatBritain.Race.HDTV.1080p.50fps.Ukr.Eng.Int.
Format :
Format version : Version 4
File size : 7.50 GiB
Duration : 1 h 54 min
Overall bit rate : 9 385 kb/s
Encoded date : UTC 2020-08-02 17:17:12
Writing application : v47.0.0 ('Black Flag') 64-bit
Writing library : libebml v1.3.10 + v1.5.2

Video
ID : 1
Format : AVC
Format/Info : Advanced Video Codec
Format profile : [email protected]
Format settings : CABAC / 4 Ref Frames
Format settings, CABAC : Yes
Format settings, Reference : 4 frames
Codec ID : V_MPEG4/ISO/AVC
Duration : 1 h 54 min
Bit rate : 8 421 kb/s
Width : 1 920 pixels
Height : 1 080 pixels
Display aspect ratio : 16:9
Frame rate mode : Constant
Frame rate : 50.000 FPS
Color space : YUV
Chroma subsampling : 4:2:0
Bit depth : 8 bits
Scan type : Progressive
Bits/(Pixel*Frame) : 0.081
Stream size : 6.73 GiB (90%)
Title : Sky Sports F1
Writing library : core 157 r2935M 545de2f
Encoding settings : cabac=1 / ref=4 / deblock=1:-3:-3 / analyse=0x3:0x113 / me=umh / subme=9 / psy=1 / psy_rd=1.00:0.15 / mixed_ref=1 / me_range=24 / chroma_me=1 / trellis=1 / 8x8dct=1 / cqm=0 / deadzone=21,11 / fast_pskip=1 / chroma_qp_offset=-3 / threads=64 / lookahead_threads=7 / sliced_threads=0 / nr=0 / decimate=1 / interlaced=0 / bluray_compat=0 / constrained_intra=0 / bframes=6 / b_pyramid=2 / b_adapt=2 / b_bias=0 / direct=1 / weightb=1 / open_gop=0 / weightp=2 / keyint=250 / keyint_min=25 / scenecut=40 / intra_refresh=0 / rc_lookahead=40 / rc=crf / mbtree=1 / crf=20.9 / qcomp=0.60 / qpmin=0 / qpmax=69 / qpstep=4 / ip_ratio=1.40 / aq=3:0.80
Language : English
Default : Yes
Forced : No

Audio #1
ID : 2
Format : AC-3
Format/Info : Audio Coding 3
Commercial name : Dolby Digital
Codec ID : A_AC3
Duration : 1 h 54 min
Bit rate mode : Constant
Bit rate : 192 kb/s
Channel(s) : 2 channels
Channel layout : L R
Sampling rate : 48.0 kHz
Frame rate : 31.250 FPS (1536 SPF)
Compression mode : Lossy
Delay relative to video : -40 ms
Stream size : 157 MiB (2%)
Title : Максим Подзігун
Language : Ukrainian
Service kind : Complete Main
Default : Yes
Forced : Yes

Audio #2
ID : 3
Format : AC-3
Format/Info : Audio Coding 3
Commercial name : Dolby Digital
Codec ID : A_AC3
Duration : 1 h 54 min
Bit rate mode : Constant
Bit rate : 192 kb/s
Channel(s) : 2 channels
Channel layout : L R
Sampling rate : 48.0 kHz
Frame rate : 31.250 FPS (1536 SPF)
Compression mode : Lossy
Delay relative to video : -40 ms
Stream size : 157 MiB (2%)
Title : Роман Гончаров
Language : Ukrainian
Service kind : Complete Main
Default : No
Forced : No

Audio #3
ID : 4
Format : AC-3
Format/Info : Audio Coding 3
Commercial name : Dolby Digital
Codec ID : A_AC3
Duration : 1 h 54 min
Bit rate mode : Constant
Bit rate : 384 kb/s
Channel(s) : 6 channels
Channel layout : L R C LFE Ls Rs
Sampling rate : 48.0 kHz
Frame rate : 31.250 FPS (1536 SPF)
Compression mode : Lossy
Delay relative to video : 800 ms
Stream size : 314 MiB (4%)
Title : Sky Sports F1
Language : English
Service kind : Complete Main
Default : No
Forced : No

Audio #4
ID : 5
Format : AC-3
Format/Info : Audio Coding 3
Commercial name : Dolby Digital
Codec ID : A_AC3
Duration : 1 h 54 min
Bit rate mode : Constant
Bit rate : 192 kb/s
Channel(s) : 2 channels
Channel layout : L R
Sampling rate : 48.0 kHz
Frame rate : 31.250 FPS (1536 SPF)
Compression mode : Lossy
Delay relative to video : -40 ms
Stream size : 157 MiB (2%)
Title : Інтершум
Service kind : Complete Main
Default : No
Forced : No
Скріншоти:


Запис/зведення: sergiyko



Срібний реліз (на рейтинг впливає 50% завантаженого)
 Трекер:    Зареєстрований   

Завантажити / скачати торрент



відео для новачків



 Зареєстрований:   2020-08-02 20:26
 Розмір:   7.5 GB 
 Оцінка:   10/10 (Голосів: 7)
   
MEGASinK 
Новенький


З нами з: 20.05.12
Востаннє: 02.08.20
Повідомлень: 1

2020-08-02 21:04  
дякую!
Ваш часовий пояс: GMT + 2 Години

Нова тема   Відповісти