Формула 1. Сезон 2020. Етап 4. Гран-Прі Великої Британії. Гонка (02.08.2020) HDTV 1080i 2xUkr/Pol

Нові коментарі

Нова тема   Відповісти
Автор Повідомлення
sergiyko.5 
VIP


З нами з: 25.02.16
Востаннє: 06.08.20
Повідомлень: 3302

2020-08-02 18:34  
Формула 1. Сезон 2020. Етап 4. Гран-Прі Великої Британії. Гонка (02.08.2020) HDTV 1080i 2xUkr/Pol


Формула 1. Сезон 2020. Етап 4. Гран-Прі Великої Британії. Гонка (02.08.2020) HDTV 1080i 2xUkr/Pol

Жанр: Перегони Формули 1
Країна: Велика Британія
Телеканал: Eleven Sport 1 HD
Коментар: Максим Подзігун, Роман Гончаров, польською

Опис:
Гонка четвертого етапу Гран-Прі Великої Британії 2020 року.


Якість: HDTV

Відео:кодек: розмір кадру: 1920 х 1080 бітрейт: 6600 кб/с 25 кад/с
Аудіо 1: мова: українська кодек: 2.0 бітрейт: 192 кб/с
Аудіо 2: мова: українська кодек: 2.0 бітрейт: 192 кб/с
Аудіо 3: мова: польська кодек: 2.0 бітрейт: 160 кб/с
Тривалість:
01:56:17
Про файл:
General
Unique ID : 57325591674571049080039351882393165831 (0x2B2081E240706C840CD41DC4B229A007)
Complete name : D:\Documents\Torrents\SPORT\Formula 1\F1.2020.04.GreatBritain.Race.HDTV.1080i.Ukr.Pol.
Format :
Format version : Version 4
File size : 5.92 GiB
Duration : 1 h 56 min
Overall bit rate : 7 291 kb/s
Movie name : rip by sergiyko
Encoded date : UTC 2020-08-02 16:01:36
Writing application : v47.0.0 ('Black Flag') 64-bit
Writing library : libebml v1.3.10 + v1.5.2

Video
ID : 1
Format : AVC
Format/Info : Advanced Video Codec
Format profile : [email protected]
Format settings : CABAC / 4 Ref Frames
Format settings, CABAC : Yes
Format settings, Reference : 4 frames
Codec ID : V_MPEG4/ISO/AVC
Duration : 1 h 56 min
Bit rate : 6 744 kb/s
Width : 1 920 pixels
Height : 1 080 pixels
Display aspect ratio : 16:9
Frame rate mode : Constant
Frame rate : 25.000 FPS
Standard : Component
Color space : YUV
Chroma subsampling : 4:2:0
Bit depth : 8 bits
Scan type : Interlaced
Scan type, store method : Separated fields
Scan order : Top Field First
Bits/(Pixel*Frame) : 0.130
Stream size : 5.48 GiB (93%)
Language : English
Default : Yes
Forced : No
Color range : Limited
Color primaries : BT.709
Transfer characteristics : BT.709
Matrix coefficients : BT.709

Audio #1
ID : 2
Format : AC-3
Format/Info : Audio Coding 3
Commercial name : Dolby Digital
Codec ID : A_AC3
Duration : 1 h 56 min
Bit rate mode : Constant
Bit rate : 192 kb/s
Channel(s) : 2 channels
Channel layout : L R
Sampling rate : 48.0 kHz
Frame rate : 31.250 FPS (1536 SPF)
Compression mode : Lossy
Delay relative to video : -160 ms
Stream size : 160 MiB (3%)
Title : Максим Подзігун
Language : Ukrainian
Service kind : Complete Main
Default : Yes
Forced : Yes

Audio #2
ID : 3
Format : AC-3
Format/Info : Audio Coding 3
Commercial name : Dolby Digital
Codec ID : A_AC3
Duration : 1 h 56 min
Bit rate mode : Constant
Bit rate : 192 kb/s
Channel(s) : 2 channels
Channel layout : L R
Sampling rate : 48.0 kHz
Frame rate : 31.250 FPS (1536 SPF)
Compression mode : Lossy
Delay relative to video : -160 ms
Stream size : 160 MiB (3%)
Title : Роман Гончаров
Language : Ukrainian
Service kind : Complete Main
Default : No
Forced : No

Audio #3
ID : 4
Format : AC-3
Format/Info : Audio Coding 3
Commercial name : Dolby Digital
Codec ID : A_AC3
Duration : 1 h 56 min
Bit rate mode : Constant
Bit rate : 160 kb/s
Channel(s) : 2 channels
Channel layout : L R
Sampling rate : 48.0 kHz
Frame rate : 31.250 FPS (1536 SPF)
Compression mode : Lossy
Stream size : 133 MiB (2%)
Language : Polish
Service kind : Complete Main
Default : No
Forced : No
Скріншоти:


Запис/зведення: sergiyko



Срібний реліз (на рейтинг впливає 50% завантаженого)
 Трекер:    Зареєстрований   

Завантажити / скачати торрент



відео для новачків



 Зареєстрований:   2020-08-02 19:06
 Розмір:   5.92 GB 
 Оцінка:   10/10 (Голосів: 26)
   
antik_2008 
Релізер і модератор відео


З нами з: 20.10.08
Востаннє: 05.08.20
Повідомлень: 4007

2020-08-02 21:13  
Цікава гонка.

sergiyko.5 Велика подяка.

VicCob 
Свій


З нами з: 16.06.10
Востаннє: 06.08.20
Повідомлень: 55

2020-08-02 21:48  
Дякую
Shadow1 
Новенький


З нами з: 06.10.14
Востаннє: 03.08.20
Повідомлень: 1

2020-08-03 21:44  
Люди є хтось на роздачі ? В мене з вчорашнього вечора не може закачатись 1.1 Гб скочало і показує 0 сідерів ?
antik_2008 
Релізер і модератор відео


З нами з: 20.10.08
Востаннє: 05.08.20
Повідомлень: 4007

2020-08-04 10:57  
Shadow1 написано:
Люди є хтось на роздачі ? В мене з вчорашнього вечора не може закачатись 1.1 Гб скочало і показує 0 сідерів ?

Shadow1
Віддано: 13.7 GB +972 MB
Завантажено: 209.27 GB
Рейтинг: 0.07

слідкуйте за рейтингом , щоб була можливість вантажити.

Ваш часовий пояс: GMT + 2 Години

Нова тема   Відповісти