Дорз / The Doors (1991) 1080p 2xUkr/Eng | Sub Eng

Нові коментарі

Нова тема   Відповісти
Автор Повідомлення
Anonymous 







2020-08-02 17:33  
Дорз / The Doors (1991) 1080p 2xUkr/Eng | Sub Eng

Дорз / The Doors (1991) 1080p 2xUkr/Eng | Sub Eng


Жанр: драма, музичний, біографічний
Країна: США



Кінокомпанія: Bill Graham Films
Режисер: Олівер Стоун / Oliver Stone
Актори: Вел Кілмер / Val Kilmer, Меґ Раян / Meg Ryan, Кайл КакЛоклен / Kyle MacLachlan, Френк Вейлі / Frank Whaley, Кевін Діллон / Kevin Dillon, Майкл Вінкотт / Michael Wincott, Майкл Медсен / Michael Madsen, Шон Стоун / Sean Stone та інші.

Сюжет:
Класичний фільм про відомого американського музиканта й секс-символа Джима Моррісона, його легендарний гурт «Дорз» і славні шістдесяті. Це були роки небувалого прагнення до волі й приголомшуючої популярності рок-н-ролу.
Його ідоли зводилися на п'єдестал, поклонялися й копіювалися. «Дорз» і їх розкута п'янка та музика стали символом покоління.


Тривалість: 02:20:39
Якість: 1080p
Відео:
кодек:
розмір кадру: 1920x816
бітрейт: 11.0 Mб/с

Аудіо # 1:
мова: українська
переклад: багатоголосий закадровий
кодек: 2.0 (стерео)
бітрейт: 192 кб/с

Аудіо # 2:
мова: українська
переклад: двоголосий закадровий ,
кодек: 5.1
бітрейт: 448 кб/с

Аудіо # 3:
мова: англійська
переклад: оригінал
кодек: 5.1
бітрейт: 1509 кб/с

Субтитри:
мова: англійська
тип: програмні (м'які)
формат: *.srt
Info
General
Unique ID : 172412468496969826621383056354131418799 (0x81B56EFF84BF1680BDA53E83C3C99EAF)
Complete name : F:\Toloka\2020\The Doors (1991) 1080p.
Format :
Format version : Version 4
File size : 12.9 GiB
Duration : 2 h 20 min
Overall bit rate : 13.1 Mb/s
Encoded date : UTC 2020-08-02 14:22:33
Writing application : v6.1.0 ('Old Devil') built on Mar 4 2013 09:10:42
Writing library : libebml v1.3.0 + v1.4.0

Video
ID : 1
Format : AVC
Format/Info : Advanced Video Codec
Format profile : [email protected]
Format settings : CABAC / 5 Ref Frames
Format settings, CABAC : Yes
Format settings, Reference : 5 frames
Codec ID : V_MPEG4/ISO/AVC
Duration : 2 h 20 min
Bit rate : 11.0 Mb/s
Width : 1 920 pixels
Height : 816 pixels
Display aspect ratio : 2.35:1
Frame rate mode : Constant
Frame rate : 23.976 FPS
Color space : YUV
Chroma subsampling : 4:2:0
Bit depth : 8 bits
Scan type : Progressive
Bits/(Pixel*Frame) : 0.292
Stream size : 10.5 GiB (82%)
Writing library : core 61 r951M 445d87e
Encoding settings : cabac=1 / ref=5 / deblock=1:-3:-3 / analyse=0x3:0x113 / me=umh / subme=7 / psy_rd=1.0:0.0 / brdo=1 / mixed_ref=1 / me_range=16 / chroma_me=1 / trellis=0 / 8x8dct=1 / cqm=2 / deadzone=6,4 / chroma_qp_offset=-2 / threads=3 / nr=0 / decimate=1 / mbaff=0 / bframes=3 / b_pyramid=1 / b_adapt=1 / b_bias=0 / direct=1 / wpredb=1 / bime=1 / keyint=250 / keyint_min=25 / scenecut=40(pre) / rc=2pass / bitrate=10980 / ratetol=1.0 / rceq='blurCplx^(1-qComp)' / qcomp=1.00 / qpmin=10 / qpmax=51 / qpstep=4 / cplxblur=20.0 / qblur=0.5 / ip_ratio=1.40 / pb_ratio=1.30 / aq=2:1.00
Language : English
Default : Yes
Forced : No
Duration_Source : General_Duration

Audio #1
ID : 2
Format : AC-3
Format/Info : Audio Coding 3
Commercial name : Dolby Digital
Codec ID : A_AC3
Duration : 2 h 20 min
Bit rate mode : Constant
Bit rate : 192 kb/s
Channel(s) : 2 channels
Channel layout : L R
Sampling rate : 48.0 kHz
Frame rate : 31.250 FPS (1536 SPF)
Compression mode : Lossy
Stream size : 193 MiB (1%)
Title : UKR (НЛО-ТБ)
Language : Ukrainian
Service kind : Complete Main
Default : Yes
Forced : Yes
Duration_Source : General_Duration

Audio #2
ID : 3
Format : AC-3
Format/Info : Audio Coding 3
Commercial name : Dolby Digital
Codec ID : A_AC3
Duration : 2 h 20 min
Bit rate mode : Constant
Bit rate : 448 kb/s
Channel(s) : 6 channels
Channel layout : L R C LFE Ls Rs
Sampling rate : 48.0 kHz
Frame rate : 31.250 FPS (1536 SPF)
Compression mode : Lossy
Stream size : 451 MiB (3%)
Title : UKR (Kino, 1+1)
Language : Ukrainian
Service kind : Complete Main
Default : No
Forced : No
Duration_Source : General_Duration

Audio #3
ID : 4
Format :
Format/Info : Digital Theater Systems
Codec ID : A_DTS
Duration : 2 h 20 min
Bit rate mode : Constant
Bit rate : 1 509 kb/s
Channel(s) : 6 channels
Channel layout : C L R Ls Rs LFE
Sampling rate : 48.0 kHz
Frame rate : 93.750 FPS (512 SPF)
Bit depth : 24 bits
Compression mode : Lossy
Stream size : 1.48 GiB (11%)
Title : ENG
Language : English
Default : No
Forced : No
Duration_Source : General_Duration

Text
ID : 5
Format : UTF-8
Codec ID : S_TEXT/UTF8
Codec ID/Info : UTF-8 Plain Text
Title : ENG
Language : English
Default : Yes
Forced : No

Menu
00:00:00.000 : en:00:00:00.000
00:10:03.645 : en:00:10:03.645
00:21:48.098 : en:00:21:48.098
00:27:29.606 : en:00:27:29.606
00:33:42.979 : en:00:33:42.979
00:45:05.536 : en:00:45:05.536
00:56:25.841 : en:00:56:25.841
01:09:06.809 : en:01:09:06.809
01:18:40.966 : en:01:18:40.966
01:24:08.585 : en:01:24:08.585
01:29:20.897 : en:01:29:20.897
01:36:39.419 : en:01:36:39.419
01:43:30.788 : en:01:43:30.788
01:57:47.060 : en:01:57:47.060
02:02:57.287 : en:02:02:57.287
02:09:53.661 : en:02:09:53.661
02:20:39.222 : en:02:20:39.222
Скріншоти







За доріжки подяка п.: Maters, robotron005, Romario_O
За постер подяка п. hellforces
Особиста подяка пану denixx за надану матеріальну допомогу на підтримку цього і майбутніх релізів.
Джерело:


 Трекер:    Зареєстрований   

Завантажити / скачати фільм українською



відео для новачків



 Зареєстрований:   2020-08-02 17:33
 Розмір:   12.9 GB 
 Оцінка фільму:   10/10 (Голосів: 3)
   
Інші релізи
   Дорз / The Doors (1991) AVC 2xUkr/Eng | Sub Eng Maters  10 / 0   3.58 GB   2019-10-24 22:05 
   Дорз / The Doors (1991) 720p Ukr/Eng | Sub Eng Hurtomivets'  0 / 0   6.34 GB   2011-12-18 16:06 
   Дорз / The Doors (1991) Ukr/Eng | Sub Eng robotron005  3 / 0   2.9 GB   2010-06-02 13:05 
Ваш часовий пояс: GMT + 2 Години

Нова тема   Відповісти