Невдаха / The Cooler (2003) HDTV 720p Ukr/Eng

Нові коментарі

Нова тема   Відповісти
Автор Повідомлення
Anonymous 







2020-08-02 17:08  
Невдаха / The Cooler (2003) HDTV 720p Ukr/Eng

Невдаха / The Cooler (2003) HDTV 720p Ukr/Eng


Жанр: кримінальний, драма
Країна: США



Кінокомпанія: ContentFilm, Pierce/Williams Entertainment, Furst Films
Режисер: Вейн Креймер
Актори: Вільям Х. Мейсі, Алек Болдуін, Марія Белло, Шон Хетесі, Рон Лівінгстон, Пол Сорвіно, Естелла Уоррен, Артур Дж. Наскарелла, М.С. Гейні, Еллен Грін

Сюжет:
Все життя Берні не щастило. Причому до такої міри, що одне з казино Лас-Вегаса найняло його працювати «гальмом», розповсюджували свою «ауру невдахи» на самих везучих клієнтів. А так як Берні заборгував казино величезну суму, він прикутий до нього міцніше, ніж сталевими ланцюгами. Знайомство з офіціанткою Наталі переростає в роман і позбавляє його від фатального невезіння. Майже виплативши свій борг, Берні збирається покинути Лас-Вегас разом з коханою. Але керуючий казино Шеллі і його господарі з мафії не збираються розлучатися з таким цінним кадром ...


Тривалість: 01:42:19
Якість: HDTV 720p
Відео:
кодек:
розмір кадру: 1280х576
бітрейт: 4600 кб/с

Аудіо # 1:
мова: українська
переклад: багатоголосий закадровий
кодек: 2.0
бітрейт: 192 кб/с

Аудіо # 2:
мова: англійська
переклад: оригінал
кодек: 2.0
бітрейт: 384 кб/с
Info
General
Unique ID : 203033939135128321591322688112071525028 (0x98BEEA10448195419B45B81E03BFC2A4)
Complete name : F:\Toloka\2020\The Cooler (2003) HDTV 720p.
Format :
Format version : Version 4
File size : 3.70 GiB
Duration : 1 h 42 min
Overall bit rate : 5 177 kb/s
Encoded date : UTC 2020-08-02 13:59:56
Writing application : v6.1.0 ('Old Devil') built on Mar 4 2013 09:10:42
Writing library : libebml v1.3.0 + v1.4.0

Video
ID : 1
Format : AVC
Format/Info : Advanced Video Codec
Format profile : [email protected]
Format settings : CABAC / 12 Ref Frames
Format settings, CABAC : Yes
Format settings, Reference : 12 frames
Codec ID : V_MPEG4/ISO/AVC
Duration : 1 h 42 min
Bit rate : 4 600 kb/s
Width : 1 280 pixels
Height : 536 pixels
Display aspect ratio : 2.40:1
Frame rate mode : Constant
Frame rate : 23.976 (24000/1001) FPS
Color space : YUV
Chroma subsampling : 4:2:0
Bit depth : 8 bits
Scan type : Progressive
Bits/(Pixel*Frame) : 0.280
Stream size : 3.21 GiB (87%)
Writing library : core 115 r2008 4c552d8
Encoding settings : cabac=1 / ref=12 / deblock=1:-3:-3 / analyse=0x3:0x133 / me=esa / subme=10 / psy=1 / psy_rd=1.00:0.00 / mixed_ref=1 / me_range=48 / chroma_me=1 / trellis=2 / 8x8dct=1 / cqm=0 / deadzone=21,11 / fast_pskip=0 / chroma_qp_offset=-2 / threads=3 / sliced_threads=0 / nr=0 / decimate=0 / interlaced=0 / bluray_compat=0 / constrained_intra=0 / bframes=9 / b_pyramid=2 / b_adapt=2 / b_bias=0 / direct=1 / weightb=1 / open_gop=1 / weightp=2 / keyint=250 / keyint_min=23 / scenecut=40 / intra_refresh=0 / rc_lookahead=40 / rc=2pass / mbtree=1 / bitrate=4600 / ratetol=1.0 / qcomp=0.60 / qpmin=0 / qpmax=69 / qpstep=4 / cplxblur=20.0 / qblur=0.5 / vbv_maxrate=50000 / vbv_bufsize=50000 / nal_hrd=none / ip_ratio=1.40 / aq=1:1.00
Default : No
Forced : No
Duration_Source : General_Duration

Audio #1
ID : 2
Format : AC-3
Format/Info : Audio Coding 3
Commercial name : Dolby Digital
Codec ID : A_AC3
Duration : 1 h 42 min
Bit rate mode : Constant
Bit rate : 192 kb/s
Channel(s) : 2 channels
Channel layout : L R
Sampling rate : 48.0 kHz
Frame rate : 31.250 FPS (1536 SPF)
Compression mode : Lossy
Stream size : 141 MiB (4%)
Title : UKR (AMC)
Language : Ukrainian
Service kind : Complete Main
Default : Yes
Forced : Yes
Duration_Source : General_Duration

Audio #2
ID : 3
Format : AC-3
Format/Info : Audio Coding 3
Commercial name : Dolby Digital
Codec ID : A_AC3
Duration : 1 h 42 min
Bit rate mode : Constant
Bit rate : 384 kb/s
Channel(s) : 6 channels
Channel layout : L R C LFE Ls Rs
Sampling rate : 48.0 kHz
Frame rate : 31.250 FPS (1536 SPF)
Compression mode : Lossy
Stream size : 281 MiB (7%)
Title : ENG
Language : English
Service kind : Complete Main
Default : No
Forced : No
Duration_Source : General_Duration
Скріншоти







За доріжку подяка п.: Sando7, Arsenfpu
Особиста подяка пану denixx за надану матеріальну допомогу на підтримку цього і майбутніх релізів.
Джерело:


 Трекер:    Зареєстрований   

Завантажити / скачати фільм українською



відео для новачків



 Зареєстрований:   2020-08-02 17:08
 Розмір:   3.7 GB 
 Оцінка фільму:   10/10 (Голосів: 2)
   
Інші релізи
   Невдаха / The Cooler (2003) HDTV 1080i Ukr/Eng | Sub Eng kryk-v.ya.  2 / 0   12.9 GB   2019-09-11 20:05 
   Невдаха / The Cooler (2003) Ukr/Eng Arsenfpu  6 / 0   2.05 GB   2017-10-12 20:59 
Ваш часовий пояс: GMT + 2 Години

Нова тема   Відповісти