Інтрижка / Hooking Up (2020) 720p Eng | sub Ukr

Нові коментарі

Нова тема   Відповісти
Автор Повідомлення
killer2015 
Свій


З нами з: 30.01.15
Востаннє: 10.08.20
Повідомлень: 96

2020-08-02 11:15  
Інтрижка / Hooking Up (2020) 720p Eng | sub Ukr

Інтрижка / Hooking Up (2020) 720p Eng | sub Ukr


Жанр: драма, комедія
Країна: США



Кінокомпанія: BondIt, Yale Productions
Режисер: Ніко Рену
Актори: Бріттані Сноу, Сем Річардсон, Джордана Брюстер, Шон Браун, Вівіка А. Фокс, Емі Пьєтц та інші

Сюжет:
Дарла - молода дівчина, яка працює в модному журналі. Вона займається пошуком скандальних любовних історій і сама страждає від сексуальної залежності. Одного разу героїня знайомиться з молодим симпатичним хлопцем, якому поставили страшний діагноз. Він завжди був романтиком і недавно розлучився зі своєю дівчиною. З першого погляду вони відчули симпатію один до одного і разом вирушили в подорож, сподіваючись знайти ліки. Поступово Дарла починає розуміти, що в житті є набагато цікавіші і захоплюючі речі, ніж фізична близькість. Ця подорож назавжди змінить життя героїв.


Тривалість: 01:44:55
Якість:
Відео:
кодек:
розмір кадру: 1280x534
бітрейт: 3 070 кб/с

Аудіо:
мова: українська
переклад: оригінал
кодек: 5.1
бітрейт: 384 кб/с

Субтитри #1:
мова: українська - офіційні
тип: програмні (м'які)
формат: *.srt

Субтитри #2:
мова: англійська
тип: програмні (м'які)
формат: *.srt
МедіаІнфо
General
Unique ID : 337316019692347461064407329600504780946 (0xFDC4B3CA3DA91E5E5AD391DFEAB6D892)
Complete name : G:\Фільми\Hooking Up (2020) 720p Eng Sub UKr Eng.
Format :
Format version : Version 4
File size : 2.53 GiB
Duration : 1 h 44 min
Overall bit rate : 3 456 kb/s
Encoded date : UTC 2020-08-02 08:01:12
Writing application : v47.0.0 ('Black Flag') 64-bit
Writing library : libebml v1.3.10 + v1.5.2

Video
ID : 1
Format : AVC
Format/Info : Advanced Video Codec
Format profile : [email protected]
Format settings : CABAC / 3 Ref Frames
Format settings, CABAC : Yes
Format settings, Reference frames : 3 frames
Format settings, GOP : M=1, N=25
Codec ID : V_MPEG4/ISO/AVC
Duration : 1 h 44 min
Bit rate : 3 070 kb/s
Width : 1 280 pixels
Height : 534 pixels
Display aspect ratio : 2.40:1
Frame rate mode : Constant
Frame rate : 23.976 (24000/1001) FPS
Color space : YUV
Chroma subsampling : 4:2:0
Bit depth : 8 bits
Scan type : Progressive
Bits/(Pixel*Frame) : 0.187
Stream size : 2.25 GiB (89%)
Title : USA (Yale Productions, SSS Entertainment, SSS Film Capital)
Language : English
Default : Yes
Forced : No

Audio
ID : 2
Format : AC-3
Format/Info : Audio Coding 3
Commercial name : Dolby Digital
Codec ID : A_AC3
Duration : 1 h 44 min
Bit rate mode : Constant
Bit rate : 384 kb/s
Channel(s) : 6 channels
Channel layout : L R C LFE Ls Rs
Sampling rate : 48.0 kHz
Frame rate : 31.250 FPS (1536 SPF)
Compression mode : Lossy
Stream size : 288 MiB (11%)
Title : Original (English)
Language : English
Service kind : Complete Main
Default : No
Forced : No

Text #1
ID : 3
Format : UTF-8
Codec ID : S_TEXT/UTF8
Codec ID/Info : UTF-8 Plain Text
Duration : 1 h 44 min
Bit rate : 85 b/s
Count of elements : 1315
Stream size : 65.2 KiB (0%)
Title : Full
Language : Ukrainian
Default : Yes
Forced : Yes

Text #2
ID : 4
Format : UTF-8
Codec ID : S_TEXT/UTF8
Codec ID/Info : UTF-8 Plain Text
Duration : 1 h 38 min
Bit rate : 79 b/s
Count of elements : 1622
Stream size : 57.7 KiB (0%)
Title : SDH
Language : English
Default : No
Forced : No
Скріншоти





Джерело:


 Трекер:    Зареєстрований   

Завантажити / скачати фільм українською



відео для новачків



 Зареєстрований:   2020-08-02 11:15
 Розмір:   2.53 GB 
 Оцінка фільму:   8.5/10 (Голосів: 6)
   
killer2015 
Свій


З нами з: 30.01.15
Востаннє: 10.08.20
Повідомлень: 96

2020-08-02 11:21  

Ваш часовий пояс: GMT + 2 Години

Нова тема   Відповісти