Мистецтво самозахисту / The Art of Self Defense (2019) 720p Eng | Sub Ukr/Eng

Нові коментарі

Нова тема   Відповісти
Автор Повідомлення
ihorpotsiluiko 
Новенький


З нами з: 30.07.18
Востаннє: 11.08.20
Повідомлень: 3

2020-08-02 03:38  
Мистецтво самозахисту / The Art of Self Defense (2019) 720p Eng | Sub Ukr/Eng

Мистецтво самозахисту / The Art of Self Defense (2019) 720p Eng | Sub Ukr/Eng


Жанр: бойовик, комедія, кримінальний, драма, детектив, трилер
Країна: США



Кінокомпанія: End Cue
Режисер: Райли Стернс
Актори: Джессі Айзенберґ, Алессандро Нівола, Імоджен Путс, Стив Терада, Девід Зеллнер, Филлип Андре Ботельо, Джейсон Бёрки.

Сюжет:
Сором’язливий 34-річний бухгалтер, з жіночним ім'ям Кейсі Девіс, якось вночі відправляється за собачим кормом. По дорозі на нього нападають невідомі на мотоциклах. Кейсі задумав купити пістолет, і поки папери на вогнепальну зброю проходять схвалення, вирішує записатися в секцію карате. Там нерішучого хлопця радо вітає брутальний сенсей, який обіцяє, що спорт змінить його життя.


Тривалість: 01:44:19
Якість:
Відео:
кодек:
розмір кадру: 1 280 х 694
бітрейт: 8 000 кб/с

Аудіо:
мова: англійська
переклад: оригінал
кодек: 5.1
бітрейт: 640 кб/с

Субтитри #1-2:
мова: англійська (full, SDH)
тип: програмні (м'які)
формат: *.srt

Субтитри #3:
мова: українська
тип: програмні (м'які)
формат: *.srt
переклад: авторський від Hardyckson
Info

Format :
Format version : Version 4
File size : 6.29 GiB
Duration : 1 h 44 min
Overall bit rate : 8 629 kb/s
Movie name : The Art of Self Defense (2019) 720p
Encoded date : UTC 2020-08-01 23:35:18
Writing application : v45.0.0 ('Heaven in Pennies') 64-bit
Writing library : libebml v1.3.10 + v1.5.2

Video
ID : 1
Format : AVC
Format/Info : Advanced Video Codec
Format profile : [email protected]
Format settings : CABAC / 9 Ref Frames
Format settings, CABAC : Yes
Format settings, Reference frames : 9 frames
Codec ID : V_MPEG4/ISO/AVC
Duration : 1 h 44 min
Bit rate : 8 000 kb/s
Width : 1 280 pixels
Height : 694 pixels
Display aspect ratio : 1.85:1
Frame rate mode : Constant
Frame rate : 23.976 (24000/1001) FPS
Color space : YUV
Chroma subsampling : 4:2:0
Bit depth : 8 bits
Scan type : Progressive
Bits/(Pixel*Frame) : 0.376
Stream size : 5.82 GiB (93%)
Title : iFT
Writing library : core 155 r2867+74 66b5600 t_mod_Custom_2 [[email protected] X86_64]
Encoding settings : cabac=1 / ref=9 / deblock=1:-3:-3 / analyse=0x3:0x133 / me=umh / subme=11 / psy=1 / fade_compensate=0.00 / psy_rd=1.00:0.00 / mixed_ref=1 / me_range=32 / chroma_me=1 / trellis=2 / 8x8dct=1 / cqm=0 / deadzone=21,11 / fast_pskip=0 / chroma_qp_offset=-2 / threads=22 / lookahead_threads=3 / sliced_threads=0 / nr=0 / decimate=0 / interlaced=0 / bluray_compat=0 / constrained_intra=0 / fgo=0 / bframes=9 / b_pyramid=2 / b_adapt=2 / b_bias=0 / direct=3 / weightb=1 / open_gop=0 / weightp=2 / keyint=250 / keyint_min=23 / scenecut=40 / intra_refresh=0 / rc=2pass / mbtree=0 / bitrate=8000 / ratetol=1.0 / qcomp=0.60 / qpmin=0:0:0 / qpmax=69:69:69 / qpstep=4 / cplxblur=20.0 / qblur=0.5 / ip_ratio=1.30 / pb_ratio=1.20 / aq=3:0.80 / aq-sensitivity=10.00 / aq-factor=1.00:1.00:1.00 / aq2=0 / aq3=0
Language : English
Default : Yes
Forced : No
Color range : Limited
Matrix coefficients : BT.709

Audio
ID : 2
Format : AC-3
Format/Info : Audio Coding 3
Commercial name : Dolby Digital
Codec ID : A_AC3
Duration : 1 h 44 min
Bit rate mode : Constant
Bit rate : 640 kb/s
Channel(s) : 6 channels
Channel layout : L R C LFE Ls Rs
Sampling rate : 48.0 kHz
Frame rate : 31.250 FPS (1536 SPF)
Compression mode : Lossy
Stream size : 478 MiB (7%)
Title : Original
Language : English
Service kind : Complete Main
Default : No
Forced : No

Text #1
ID : 3
Format : UTF-8
Codec ID : S_TEXT/UTF8
Codec ID/Info : UTF-8 Plain Text
Duration : 1 h 39 min
Bit rate : 53 b/s
Count of elements : 1010
Stream size : 38.7 KiB (0%)
Title : Full
Language : English
Default : No
Forced : No

Text #2
ID : 4
Format : UTF-8
Codec ID : S_TEXT/UTF8
Codec ID/Info : UTF-8 Plain Text
Duration : 1 h 39 min
Bit rate : 57 b/s
Count of elements : 1161
Stream size : 41.7 KiB (0%)
Title : SDH
Language : English
Default : No
Forced : No

Text #3
ID : 5
Format : UTF-8
Codec ID : S_TEXT/UTF8
Codec ID/Info : UTF-8 Plain Text
Duration : 1 h 39 min
Bit rate : 85 b/s
Count of elements : 1007
Stream size : 62.3 KiB (0%)
Title : ukr
Language : Ukrainian
Default : Yes
Forced : No
Скріншоти




Особиста оцінка: 10 - без зайвих вагань рекомендую всім!


Золотий реліз (завантажене не впливає на рейтинг)
 Трекер:    Зареєстрований   

Завантажити / скачати фільм українською



відео для новачків



 Зареєстрований:   2020-08-02 03:38
 Розмір:   6.29 GB 
 Оцінка фільму:   6.3/10 (Голосів: 3)
   
Ваш часовий пояс: GMT + 2 Години

Нова тема   Відповісти