Ґамбіт / Gambit (1966) AVC Ukr/Eng | Sub Eng

Нові коментарі

Нова тема   Відповісти
Автор Повідомлення
21jumpstreet 
VIP


З нами з: 03.07.12
Востаннє: 05.08.20
Повідомлень: 1125

2020-08-01 23:53  
Ґамбіт / Gambit (1966) AVC Ukr/Eng | Sub Eng


Ґамбіт / Gambit (1966) AVC Ukr/Eng | Sub Eng


Жанр: комедія, кримінальний
Країна: США



Кінокомпанія: Universal Pictures
Режисер: Роналд Нім
Актори: Ширлі Маклейн (Shirley MacLaine), Майкл Кейн (Michael Caine), Херберт Лом (Herbert Lom), Роджер С. Кармел (Roger C. Carmel), Арнольд Мосс (Arnold Moss)

Сюжет:
Гаррі Дін планує здійснити пограбування століття, але його план буде неможливий без участі європейської інтриганки і красуні Ніколь. Причому для виконання злочинного задуму Діну потрібна саме краса Ніколь і її здатність до перевтілень. Об'єкт крадіжки дуже незвичайний - це безцінний музейний раритет, який ретельно охороняється. Спільникам доведеться дуже постаратися, щоб досягти своєї мети.


Тривалість: 01:48:25
Якість:
Відео:
кодек:
розмір кадру: 1040 х 442
бітрейт: 2357 кб/с

Аудіо # 1:
мова: українська
переклад: двоголосий закадровий
кодек: 2.0
бітрейт: 192 кб/с
Ролі озвучили: Євген Пашин та Катерина Буцька

Аудіо # 2:
мова: англійська
переклад: оригінал
кодек: 2.0
бітрейт: 192 кб/с

Джерело озвучення:


Субтитри:
мова: англійська
тип: програмні (м'які)
формат: *.srt
Скріншоти



Info
C:\Users\Admin\Downloads\Gambit(1966) AVC [Ukr,Eng] [Hurtom].
General
Unique ID : 200631115567396296772580421263243871185 (0x96F025B7126C27C5ABC9857A264C03D1)
Complete name : C:\Users\Admin\Downloads\Gambit(1966) AVC [Ukr,Eng] [Hurtom].
Format :
Format version : Version 4 / Version 2
File size : 2.08 GiB
Duration : 1 h 48 min
Overall bit rate : 2 743 kb/s
Movie name : Gambit (1966) AVC [Ukr,Eng] [Hurtom]
Encoded date : UTC 2020-08-01 20:29:24
Writing application : v22.0.0 ('At The End Of The World') 32-bit
Writing library : libebml v1.3.5 + v1.4.8
Attachments : gambit3_550.jpg
Video #1
ID : 1
Format : AVC
Format/Info : Advanced Video Codec
Format profile : [email protected]
Format settings, CABAC : Yes
Format settings, ReFrames : 13 frames
Codec ID : V_MPEG4/ISO/AVC
Duration : 1 h 48 min
Bit rate : 2 357 kb/s
Width : 1 040 pixels
Height : 442 pixels
Display aspect ratio : 2.35:1
Frame rate mode : Constant
Frame rate : 23.976 (24000/1001) FPS
Color space : YUV
Chroma subsampling : 4:2:0
Bit depth : 8 bits
Scan type : Progressive
Bits/(Pixel*Frame) : 0.214
Stream size : 1.78 GiB (86%)
Writing library : core 160 r3000 33f9e14
Encoding settings : cabac=1 / ref=13 / deblock=1:-3:-2 / analyse=0x3:0x133 / me=umh / subme=10 / psy=1 / psy_rd=1.00:0.00 / mixed_ref=1 / me_range=32 / chroma_me=1 / trellis=2 / 8x8dct=1 / cqm=0 / deadzone=21,11 / fast_pskip=0 / chroma_qp_offset=-2 / threads=6 / lookahead_threads=1 / sliced_threads=0 / nr=0 / decimate=1 / interlaced=0 / bluray_compat=0 / constrained_intra=0 / bframes=14 / b_pyramid=2 / b_adapt=2 / b_bias=0 / direct=1 / weightb=1 / open_gop=0 / weightp=2 / keyint=250 / keyint_min=23 / scenecut=40 / intra_refresh=0 / rc=crf / mbtree=0 / crf=19.0 / qcomp=0.65 / qpmin=0 / qpmax=69 / qpstep=4 / ip_ratio=1.40 / pb_ratio=1.30 / aq=3:0.90
Language : English
Default : Yes
Forced : No
Audio #2
ID : 2
Format : AC-3
Format/Info : Audio Coding 3
Mode extension : CM (complete main)
Format settings, Endianness : Big
Codec ID : A_AC3
Duration : 1 h 48 min
Bit rate mode : Constant
Bit rate : 192 kb/s
Channel(s) : 2 channels
Channel positions : Front: L R
Sampling rate : 48.0 kHz
Frame rate : 31.250 FPS (1536 spf)
Compression mode : Lossy
Stream size : 149 MiB (7%)
Title : Gambit (1966) TV PLUS for ICTV
Language : Ukrainian
Default : Yes
Forced : Yes
Audio #3
ID : 3
Format : AC-3
Format/Info : Audio Coding 3
Mode extension : CM (complete main)
Format settings, Endianness : Big
Codec ID : A_AC3
Duration : 1 h 48 min
Bit rate mode : Constant
Bit rate : 192 kb/s
Channel(s) : 2 channels
Channel positions : Front: L R
Sampling rate : 48.0 kHz
Frame rate : 31.250 FPS (1536 spf)
Compression mode : Lossy
Stream size : 149 MiB (7%)
Language : English
Default : No
Forced : No
Text #4
ID : 4
Format : UTF-8
Codec ID : S_TEXT/UTF8
Codec ID/Info : UTF-8 Plain Text
Duration : 1 h 43 min
Bit rate : 53 b/s
Count of elements : 1055
Stream size : 40.7 KiB (0%)
Title : Full
Language : English
Default : No
Forced : No
Найщиріша подяка за роботу над релізом:
kryk-v.ya, Merdiff, somnambula, urij546724

Джерело: &
Особиста оцінка: 10 - без зайвих вагань рекомендую всім! Ширлі Маклейн і Майкл Кейн на висоті!!! Ширлі ван лав!!!!


Срібний реліз (на рейтинг впливає 50% завантаженого)
 Трекер:    Зареєстрований   

Завантажити / скачати фільм українською



відео для новачків



 Зареєстрований:   2020-08-02 00:48
 Розмір:   2.08 GB 
 Оцінка фільму:   9.3/10 (Голосів: 12)
   
Інші релізи
   Ґамбіт / Gambit (1966) Ukr/Eng urij546724  3 / 0   2.01 GB   2011-09-29 19:25 
Ваш часовий пояс: GMT + 2 Години

Нова тема   Відповісти