Експедиція Амелія / Expedition Amelia (2019) 1080p Ukr/Eng

Нові коментарі

Нова тема   Відповісти
Автор Повідомлення
sergiyko.5 
VIP


З нами з: 25.02.16
Востаннє: 06.08.20
Повідомлень: 3302

2020-08-01 20:38  
Експедиція Амелія / Expedition Amelia (2019) 1080p Ukr/Eng


Експедиція Амелія / Expedition Amelia (2019) 1080p Ukr/Eng

Жанр: документальний, історичний
Країна: США
Кінокомпанія: National Geographic

Сюжет:
Джош знаходить нові свідоцтва наробившого багато галасу зникнення Амелії Ерхарт - він першим знаходить непозначені на картах племінні землі в Папуа Новій Гвінеї, потім подорожує на Фіджі, сподіваючись знайти останки Амелії.




Тривалість: 01:33:59
Якість:

Відео: кодек: розмір кадру: 1920 х 1080 бітрейт: 4600 кб/с
Аудіо # 1: мова: українська переклад: багатоголосий закадровий кодек: 2.0 бітрейт: 100 кб/с
Озвучення: National Geographic
Аудіо # 2: мова: англійська переклад: оригінал кодек: 2.0 бітрейт: 192 кб/с
Про файл:
General
Unique ID : 173836858630654071994988457164204520884 (0x82C7C2DA8FFE82CED604968532C1B5B4)
Complete name : D:\Documents\Torrents\Expedition.Amelia.2019.1080p..Ukr.Eng.
Format :
Format version : Version 4
File size : 3.21 GiB
Duration : 1 h 33 min
Overall bit rate mode : Variable
Overall bit rate : 4 895 kb/s
Movie name : Expedition Amelia 2019 rip by sergiyko
Encoded date : UTC 2020-08-01 17:30:53
Writing application : v47.0.0 ('Black Flag') 64-bit
Writing library : libebml v1.3.10 + v1.5.2

Video
ID : 1
Format : AVC
Format/Info : Advanced Video Codec
Format profile : [email protected]
Format settings : CABAC / 1 Ref Frames
Format settings, CABAC : Yes
Format settings, Reference : 1 frame
Codec ID : V_MPEG4/ISO/AVC
Duration : 1 h 33 min
Bit rate mode : Variable
Bit rate : 4 607 kb/s
Maximum bit rate : 13.5 Mb/s
Width : 1 920 pixels
Height : 1 080 pixels
Display aspect ratio : 16:9
Frame rate mode : Constant
Frame rate : 25.000 FPS
Color space : YUV
Chroma subsampling : 4:2:0
Bit depth : 8 bits
Scan type : Progressive
Bits/(Pixel*Frame) : 0.089
Stream size : 3.02 GiB (94%)
Title : Expedition Amelia 2019
Language : English
Default : Yes
Forced : No

Audio #1
ID : 2
Format : LC
Format/Info : Advanced Audio Codec Low Complexity
Codec ID : A_AAC-2
Duration : 1 h 33 min
Bit rate : 93.4 kb/s
Channel(s) : 2 channels
Channel layout : L R
Sampling rate : 48.0 kHz
Frame rate : 46.875 FPS (1024 SPF)
Compression mode : Lossy
Delay relative to video : -40 ms
Stream size : 62.8 MiB (2%)
Title : MVO
Language : Ukrainian
Default : Yes
Forced : Yes

Audio #2
ID : 3
Format : LC
Format/Info : Advanced Audio Codec Low Complexity
Codec ID : A_AAC-2
Duration : 1 h 33 min
Bit rate : 192 kb/s
Channel(s) : 2 channels
Channel layout : L R
Sampling rate : 44.1 kHz
Frame rate : 43.066 FPS (1024 SPF)
Compression mode : Lossy
Stream size : 129 MiB (4%)
Title : Original
Language : English
Default : No
Forced : No
Скріншоти:


Запис/зведення: sergiyko


 Трекер:    Зареєстрований   

Завантажити / скачати фільм українською



відео для новачків



 Зареєстрований:   2020-08-01 20:38
 Розмір:   3.21 GB 
 Оцінка фільму:   10/10 (Голосів: 8)
   
Ваш часовий пояс: GMT + 2 Години

Нова тема   Відповісти