Формула 1. Сезон 2020. Етап 4. Гран-Прі Великої Британії. Кваліфікація (01.08.2020) IPTV 1080p

Нові коментарі

Нова тема   Відповісти
Автор Повідомлення
sergiyko.5 
VIP


З нами з: 25.02.16
Востаннє: 10.08.20
Повідомлень: 3323

2020-08-01 18:59  
Формула 1. Сезон 2020. Етап 4. Гран-Прі Великої Британії. Кваліфікація (01.08.2020) IPTV 1080p


Формула 1. Сезон 2020. Етап 4. Гран-Прі Великої Британії. Кваліфікація (01.08.2020) IPTV 1080p

Жанр: Перегони Формули 1
Країна: Велика Британія
Телеканал: Setanta Sport HD
Коментар: Максим Подзігун

Опис:
Кваліфікація четвертого етапу Гран-Прі Великої Британії 2020 року.


Якість: IPTV

Відео:кодек: розмір кадру: 1920 х 1080 бітрейт: 6000 кб/с 25 кад/с
Аудіо: мова: українська кодек: 2.0 бітрейт: 192 кб/с
Тривалість:
01:24:58
Про файл:
General
Unique ID : 60840218290944662355535755118173672053 (0x2DC5665ACC23863A3217A68AD2C2D275)
Complete name : D:\Documents\Torrents\SPORT\Formula 1\F1.2020.04.GreatBritain.Qualifying.1080p.IPTV.
Format :
Format version : Version 4
File size : 3.78 GiB
Duration : 1 h 24 min
Overall bit rate mode : Variable
Overall bit rate : 6 363 kb/s
Movie name : rip by sergiyko
Encoded date : UTC 2020-08-01 16:15:41
Writing application : v47.0.0 ('Black Flag') 64-bit
Writing library : libebml v1.3.10 + v1.5.2

Video
ID : 1
Format : AVC
Format/Info : Advanced Video Codec
Format profile : [email protected]
Format settings : CABAC / 3 Ref Frames
Format settings, CABAC : Yes
Format settings, Reference : 3 frames
Codec ID : V_MPEG4/ISO/AVC
Duration : 1 h 24 min
Bit rate mode : Variable
Bit rate : 6 169 kb/s
Maximum bit rate : 7 500 kb/s
Width : 1 920 pixels
Height : 1 080 pixels
Display aspect ratio : 16:9
Frame rate mode : Constant
Frame rate : 25.000 FPS
Color space : YUV
Chroma subsampling : 4:2:0
Bit depth : 8 bits
Scan type : Progressive
Bits/(Pixel*Frame) : 0.119
Stream size : 3.66 GiB (97%)
Title : F1 2020 04 GreatBritain Qualifying
Language : English
Default : Yes
Forced : No

Audio
ID : 2
Format : AC-3
Format/Info : Audio Coding 3
Commercial name : Dolby Digital
Codec ID : A_AC3
Duration : 1 h 24 min
Bit rate mode : Constant
Bit rate : 192 kb/s
Channel(s) : 2 channels
Channel layout : L R
Sampling rate : 48.0 kHz
Frame rate : 31.250 FPS (1536 SPF)
Compression mode : Lossy
Delay relative to video : -120 ms
Stream size : 117 MiB (3%)
Title : Максим Подзігун
Language : Ukrainian
Service kind : Complete Main
Default : Yes
Forced : No
Скріншоти:


Запис/зведення: sergiyko



 Трекер:    Зареєстрований   

Завантажити / скачати торрент



відео для новачків



 Зареєстрований:   2020-08-01 19:17
 Розмір:   3.78 GB 
 Оцінка:   9.9/10 (Голосів: 29)
   
Ваш часовий пояс: GMT + 2 Години

Нова тема   Відповісти