Феномен / Phenomenon (1996) 1080p Ukr/Eng | Sub Eng

Нові коментарі

Нова тема   Відповісти
Автор Повідомлення
Anonymous 







2020-08-01 12:12  
Феномен / Phenomenon (1996) 1080p Ukr/Eng | Sub Eng

Феномен / Phenomenon (1996) 1080p Ukr/Eng | Sub Eng


Жанр: драма, фентезі, романтичний
Країна: США



Кінокомпанія: Touchstone Pictures
Режисер: Джон Тертелтауб
Актори: Джон Траволта, Кіра Седжвік, Форест Вітакер, Роберт Дюваль, Джефрі ДеМанн, Річард Кайлі, Девід Галлахер, Ешлі Буккілль, Тоні Дженаро, Шон О'Брайан

Сюжет:
Джордж Меллі - автомеханік, який живе своїм звичайним життям, яке кардинально змінюється після загадкового спалаху світла, який він мав можливість спостерігати в свій 37-й день народження. Через кілька днів Джордж раптом починає розуміти, що може передбачати землетруси, а також проявляє екстраординарну форму інтелекту рівня генія. Тепер він з легкістю може поглинати величезну кількість інформації, крім усього іншого він розробляє нові революційні ідеї в різних галузях науки і навіть йому вдається продемонструвати здібності до телекінезу. Тепер Джордж планує зробити все можливе, щоб використати свій незвичайний інтелект на благо всього суспільства.


Тривалість: 02:03:26
Якість: 1080p
Відео:
кодек:
розмір кадру: 1920х800
бітрейт: 11.4 Mб/с

Аудіо # 1:
мова: українська
переклад: багатоголосий закадровий
кодек: 2.0 (з 5.1)
бітрейт: 192 кб/с

Аудіо # 2:
мова: англійська
переклад: оригінал
кодек: 5.1
бітрейт: 1509 кб/с

Субтитри:
мова: англійська
тип: програмні (м'які)
формат: *.srt
Info
General
Unique ID : 202274959656675601875039670091364318779 (0x982CBD7C73F3E286B74B83CD73663E3B)
Complete name : E:\Toloka\2020\Phenomenon (1996) 1080p.
Format :
Format version : Version 4
File size : 11.3 GiB
Duration : 2 h 3 min
Overall bit rate : 13.1 Mb/s
Encoded date : UTC 2020-08-01 08:59:37
Writing application : v6.1.0 ('Old Devil') built on Mar 4 2013 09:10:42
Writing library : libebml v1.3.0 + v1.4.0

Video
ID : 1
Format : AVC
Format/Info : Advanced Video Codec
Format profile : [email protected]
Format settings : CABAC / 4 Ref Frames
Format settings, CABAC : Yes
Format settings, Reference : 4 frames
Codec ID : V_MPEG4/ISO/AVC
Duration : 2 h 3 min
Bit rate : 11.4 Mb/s
Width : 1 920 pixels
Height : 800 pixels
Display aspect ratio : 2.40:1
Frame rate mode : Constant
Frame rate : 23.976 (24000/1001) FPS
Color space : YUV
Chroma subsampling : 4:2:0
Bit depth : 8 bits
Scan type : Progressive
Bits/(Pixel*Frame) : 0.309
Stream size : 9.59 GiB (85%)
Writing library : core 125 r2200 999b753
Encoding settings : cabac=1 / ref=4 / deblock=1:-2:-1 / analyse=0x3:0x113 / me=umh / subme=10 / psy=1 / psy_rd=1.00:0.20 / mixed_ref=1 / me_range=32 / chroma_me=1 / trellis=2 / 8x8dct=1 / cqm=0 / deadzone=21,11 / fast_pskip=0 / chroma_qp_offset=-3 / threads=4 / lookahead_threads=1 / sliced_threads=0 / nr=0 / decimate=1 / interlaced=0 / bluray_compat=0 / constrained_intra=0 / bframes=9 / b_pyramid=2 / b_adapt=2 / b_bias=0 / direct=3 / weightb=1 / open_gop=0 / weightp=2 / keyint=240 / keyint_min=23 / scenecut=40 / intra_refresh=0 / rc=2pass / mbtree=0 / bitrate=11376 / ratetol=1.0 / qcomp=0.60 / qpmin=0 / qpmax=69 / qpstep=4 / cplxblur=20.0 / qblur=0.5 / ip_ratio=1.40 / pb_ratio=1.30 / aq=1:1.00
Language : English
Default : Yes
Forced : No
Duration_Source : General_Duration

Audio #1
ID : 2
Format : AC-3
Format/Info : Audio Coding 3
Commercial name : Dolby Digital
Codec ID : A_AC3
Duration : 2 h 3 min
Bit rate mode : Constant
Bit rate : 192 kb/s
Channel(s) : 2 channels
Channel layout : L R
Sampling rate : 48.0 kHz
Frame rate : 31.250 FPS (1536 SPF)
Compression mode : Lossy
Stream size : 170 MiB (1%)
Title : UKR (K1)
Language : Ukrainian
Service kind : Complete Main
Default : Yes
Forced : Yes
Duration_Source : General_Duration

Audio #2
ID : 3
Format :
Format/Info : Digital Theater Systems
Codec ID : A_DTS
Duration : 2 h 3 min
Bit rate mode : Constant
Bit rate : 1 509 kb/s
Channel(s) : 6 channels
Channel layout : C L R Ls Rs LFE
Sampling rate : 48.0 kHz
Frame rate : 93.750 FPS (512 SPF)
Bit depth : 24 bits
Compression mode : Lossy
Stream size : 1.30 GiB (12%)
Title : ENG
Language : English
Default : No
Forced : No
Duration_Source : General_Duration

Text
ID : 4
Format : UTF-8
Codec ID : S_TEXT/UTF8
Codec ID/Info : UTF-8 Plain Text
Title : ENG
Language : English
Default : No
Forced : No

Menu
00:00:00.000 : :00:00:00.000
00:00:10.844 : :00:00:10.844
00:06:32.309 : :00:06:32.309
00:10:28.336 : :00:10:28.336
00:16:19.604 : :00:16:19.604
00:25:21.228 : :00:25:21.228
00:34:18.473 : :00:34:18.473
00:42:12.405 : :00:42:12.405
00:47:33.017 : :00:47:33.017
00:57:39.956 : :00:57:39.956
01:05:10.573 : :01:05:10.573
01:12:15.456 : :01:12:15.456
01:20:00.921 : :01:20:00.921
01:29:19.187 : :01:29:19.187
01:35:09.996 : :01:35:09.996
01:44:46.614 : :01:44:46.614
01:52:15.437 : :01:52:15.437
01:58:11.084 : :01:58:11.084
Скріншоти








За доріжку подяка п. bodia87
Особиста подяка пану denixx за надану матеріальну допомогу на підтримку цього і майбутніх релізів.
Джерело:


Срібний реліз (на рейтинг впливає 50% завантаженого)
 Трекер:    Зареєстрований   

Завантажити / скачати фільм українською



відео для новачків



 Зареєстрований:   2020-08-01 12:12
 Розмір:   11.28 GB 
 Оцінка фільму:   9.8/10 (Голосів: 4)
   
Інші релізи
   Феномен / Phenomenon (1996) 864p Ukr/Eng | sub Eng bodia87  0 / 0   3.84 GB   2018-04-29 16:19 
   Феномен / Phenomenon (1996) AVC Ukr/Eng | sub Eng bodia87  4 / 0   1.83 GB   2013-06-30 18:00 
Ваш часовий пояс: GMT + 2 Години

Нова тема   Відповісти