Найп'янкіший округ у світі / Lawless [International Cut] (2012) 1080p 2xUkr/Eng | Sub Ukr/Eng

Нові коментарі

Нова тема   Відповісти
Автор Повідомлення
Anonymous 







2020-08-01 05:36  
Найп'янкіший округ у світі / Lawless [International Cut] (2012) 1080p 2xUkr/Eng | Sub Ukr/Eng




Жанр: кримінальний, драма
Країна: США



Кінокомпанія: The Weinstein Company, Yucaipa Films, Revolt Films
Режисер: Джон Гіллкоут / John Hillcoat
Актори: Шая ЛаБеф / Shia LaBeouf, Том Харді / Tom Hardy, Джейсон Кларк / Jason Clarke, Ґай Пірс / Guy Pearce, Джессіка Честейн / Jessica Chastain, Міа Васіковска / Mia Wasikowska, Дейн ДеГаан / Dane DeHaan, Кріс МакҐеррі / Chris McGarry, Тім Толін / Tim Tolin, Ґері Олдмен / Gary Oldman, Лью Темпл / Lew Temple, Маркус Гестер / Marcus Hester, Білл Кемп / Bill Camp, Алекс Ван / Alex Van, Ноа Тейлор / Noah Taylor та інші

Сюжет:
Сім’я Бондурант займається забороненим бізнесом. Вони бутлегери на амереканському Півдні за часів сухого закону і Великої Деперсії. Наймолодший з братів Бондурант Джек сподівається заробити грошей і вразити свою кохану Берту.Але його старший брат Форрест на такий оптиміст. Він мовчазний і підозрілий, а третьому братові Говарду часто доводиться мати справу з ворогами незаконного сімейного бізнесу – корумпованими місцевими поліцейськими.

Тривалість: 01:56:03
Якість: [crf=18.0] 1080p | Джерело Remux 1080p

Відео:
Кодек:
Розмір кадру: 1918 x 800
Бітрейт: 13.4 Мбіт/с

Аудіо #1:
Мова: українська
Переклад: професійний дубльований

Кодек: -HD MA 5.1 [HDClub]
Бітрейт: 2087 Кбіт/с

Аудіо #2:
Мова: українська
Переклад: багатоголосий закадровий [CINE+]

Кодек: 2.0
Бітрейт: 192 Кбіт/с

Аудіо #3:
Мова: англійська
Переклад: Оригінал
Кодек: 5.1
Бітрейт: 1509 Кбіт/с

Субтитри #1:
Мова: англійська | Повні | Завантажити з OpenSubtitles
Тип: програмні (м'які)
Формат: *.srt

Субтитри #2:
Мова: англійська | Повні
Тип: програмні (м'які)
Формат: *.srt

Info


General
Unique ID : 119655084435514370352649817891639495219 (0x5A04BB238DB50647ED3B496E5E9D8A33)
Format :
Format version : Version 4
File size : 13.9 GiB
Duration : 1 h 56 min
Overall bit rate mode : Variable
Overall bit rate : 17.1 Mb/s
Movie name : Lawless [International Cut] (2012) 1080p [2xUkrEng][SubUkrEng] [Hurtom]
Encoded date : UTC 2020-08-01 01:38:01
Writing application : v46.0.0 ('No Deeper Escape') 64-bit
Writing library : libebml v1.3.10 + v1.5.2
Cover : Yes
Attachments : cover.jpg

Video
ID : 1
Format : AVC
Format/Info : Advanced Video Codec
Format profile : [email protected]
Format settings : CABAC / 5 Ref Frames
Format settings, CABAC : Yes
Format settings, Reference fra : 5 frames
Codec ID : V_MPEG4/ISO/AVC
Duration : 1 h 56 min
Bit rate : 13.4 Mb/s
Width : 1 918 pixels
Height : 800 pixels
Display aspect ratio : 2.40:1
Original display aspect ratio : 2.40:1
Frame rate mode : Constant
Frame rate : 23.976 (24000/1001) FPS
Color space : YUV
Chroma subsampling : 4:2:0
Bit depth : 8 bits
Scan type : Progressive
Bits/(Pixel*Frame) : 0.363
Stream size : 10.8 GiB (78%)
Title : Lawless [International Cut] (2012) 1080p
Writing library : core 157 r2935 545de2f
Encoding settings : cabac=1 / ref=5 / deblock=1:-3:-3 / analyse=0x3:0x133 / me=umh / subme=10 / psy=1 / psy_rd=1.00:0.00 / mixed_ref=1 / me_range=24 / chroma_me=1 / trellis=2 / 8x8dct=1 / cqm=0 / deadzone=21,11 / fast_pskip=0 / chroma_qp_offset=-2 / threads=18 / lookahead_threads=3 / sliced_threads=0 / nr=0 / decimate=1 / interlaced=0 / bluray_compat=0 / constrained_intra=0 / bframes=8 / b_pyramid=2 / b_adapt=2 / b_bias=0 / direct=3 / weightb=1 / open_gop=0 / weightp=2 / keyint=240 / keyint_min=24 / scenecut=40 / intra_refresh=0 / rc_lookahead=60 / rc=crf / mbtree=1 / crf=18.0 / qcomp=0.60 / qpmin=0 / qpmax=69 / qpstep=4 / vbv_maxrate=62500 / vbv_bufsize=78125 / crf_max=0.0 / nal_hrd=none / filler=0 / ip_ratio=1.40 / aq=1:1.00
Language : English
Default : Yes
Forced : No
Color range : Limited
Color primaries : BT.709
Transfer characteristics : BT.709
Matrix coefficients : BT.709

Audio #1
ID : 2
Format : XLL
Format/Info : Digital Theater Systems
Commercial name : -HD Master Audio
Codec ID : A_DTS
Duration : 1 h 55 min
Bit rate mode : Variable
Bit rate : 2 087 kb/s
Channel(s) : 6 channels
Channel layout : C L R Ls Rs LFE
Sampling rate : 48.0 kHz
Frame rate : 93.750 FPS (512 SPF)
Bit depth : 16 bits
Compression mode : Lossless
Stream size : 1.68 GiB (12%)
Title : Dub [HDClub] -HD MA 5.1 @ 2087 Кбіс/с
Language : Ukrainian
Default : Yes
Forced : No

Audio #2
ID : 3
Format : AC-3
Format/Info : Audio Coding 3
Commercial name : Dolby Digital
Codec ID : A_AC3
Duration : 1 h 56 min
Bit rate mode : Constant
Bit rate : 192 kb/s
Channel(s) : 2 channels
Channel layout : L R
Sampling rate : 48.0 kHz
Frame rate : 31.250 FPS (1536 SPF)
Compression mode : Lossy
Stream size : 160 MiB (1%)
Title : MVO [Cine+] 5.1 @ 192 Кбіт/с
Language : Ukrainian
Service kind : Complete Main
Default : No
Forced : No

Audio #3
ID : 4
Format : ES
Format/Info : Digital Theater Systems
Commercial name : -ES Matrix
Codec ID : A_DTS
Duration : 1 h 56 min
Bit rate mode : Constant
Bit rate : 1 509 kb/s
Channel(s) : 6 channels
Channel(s)_Original : 7 channels
ChannelLayout_Original : C L R Ls Rs Cs LFE
Sampling rate : 48.0 kHz
Frame rate : 93.750 FPS (512 SPF)
Bit depth : 24 bits
Compression mode : Lossy
Stream size : 1.23 GiB (9%)
Title : [Оригінал] -ES 5.1 @ 1509 Кбіт/с
Language : English
Default : No
Forced : No

Text #1
ID : 5
Format : UTF-8
Codec ID : S_TEXT/UTF8
Codec ID/Info : UTF-8 Plain Text
Duration : 1 h 49 min
Bit rate : 74 b/s
Count of elements : 1054
Stream size : 59.7 KiB (0%)
Title : Повні
Language : Ukrainian
Default : No
Forced : No

Text #2
ID : 6
Format : UTF-8
Codec ID : S_TEXT/UTF8
Codec ID/Info : UTF-8 Plain Text
Duration : 1 h 52 min
Bit rate : 46 b/s
Count of elements : 1128
Stream size : 38.4 KiB (0%)
Title : Повні
Language : English
Default : No
Forced : No

Menu
00:00:00.000 : en:00:00:00.000 / en:Глава 01
00:04:36.818 : en:00:04:36.818
00:09:16.639 : en:00:09:16.639
00:14:39.587 : en:00:14:39.587
00:21:55.689 : en:00:21:55.689
00:26:34.343 : en:00:26:34.343
00:34:23.895 : en:00:34:23.895
00:41:06.964 : en:00:41:06.964
00:48:30.825 : en:00:48:30.825
00:56:45.652 : en:00:56:45.652
01:05:11.074 : en:01:05:11.074
01:11:21.903 : en:01:11:21.903
01:19:30.724 : en:01:19:30.724
01:25:00.887 : en:01:25:00.887
01:31:49.838 : en:01:31:49.838
01:37:32.889 : en:01:37:32.889
01:44:44.737 : en:01:44:44.737
01:49:07.708 : en:01:49:07.708
Скріншоти









Доріжка від Cine+ - Sando7
субтитри - igor911, Delight

Джерело:


 Трекер:    Зареєстрований   

Завантажити / скачати фільм українською



відео для новачків



 Зареєстрований:   2020-08-01 05:36
 Розмір:   13.9 GB 
 Оцінка фільму:   10/10 (Голосів: 2)
   
olexiykos 
Частий відвідувач


З нами з: 10.10.17
Востаннє: 21.09.20
Повідомлень: 25

2020-09-13 20:19  
відсутній звук
kryk-v.ya. 
Попереджень: 1
Попереджень: 1 


З нами з: 14.02.14
Востаннє: 21.09.20
Повідомлень: 2239

2020-09-13 20:37  
olexiykos написано:
відсутній звук

отакої...а як таке можливо?

Ваш часовий пояс: GMT + 2 Години

Нова тема   Відповісти