Майкл / Michael (1996) 720p 2xUkr/Eng | Sub Eng

Нові коментарі

Нова тема   Відповісти
Автор Повідомлення
Anonymous 







2020-07-31 22:20  
Майкл / Michael (1996) 720p 2xUkr/Eng | Sub Eng

Майкл / Michael (1996) 720p 2xUkr/Eng | Sub Eng


Жанр: фентезі, мелодрама, комедія
Країна: США



Кінокомпанія: Turner Pictures
Режисер: Нора Ефрон / Nora Ephron
Актори: Джон Траволта, Енді МакДауелл, Вільям Херт, Боб Хоскінс, Роберт Пастореллі, Жан Степлтон, Тері Гарр, Воллес Ленгем, Джоі Лорен Едамс, Карла Гуджино

Сюжет:
Два репортера популярного чиказького видання, що спеціалізується на сенсаціях, Френк Куінлан і Х'юі Дрісколл, отримують дивний лист з провінційного містечка в штаті Айова. Вони з подивом дізнаються, що в місцевому мотелі вже шість місяців живе ангел з крилами. Будучи на межі звільнення, хлопці вирішують повідомити про це головному редактору, і той напередодні Різдва посилає їх на завдання. Разом з ними їде дресирувальниця собак Дороті Вінтерс із завданням приручити пса, що належить одному з журналістів. Цей пес - символ газети. Три журналіста і собака приїжджають у вказаний мотель і з подивом виявляють, що лист, надісланий до редакції - не марення божевільного, не безглуздий жарт. У крихітному придорожньому мотельчику насправді проживає архангел Михаїл, Майкл, красивий, хоча і не в міру вгодований чоловік у самому розквіті сил. Бруднуватий хлопець з жирними крилами, з яких випадають пір'я, виявляється далеко не святим. Він курить сигарети одну за одною, їсть і п'є за чотирьох, не проти побитися, але зате такий привабливий, пахне від нього кондитерською, а жінки сходять по ньому з розуму. Він творить маленькі дива, які так потрібні людям. Прийнявши пропозицію журналістів покататися в Чикаго, він легко ховає крила під плащем, щоб не шокувати публіку…


Тривалість: 01:45:02
Якість: 720p
Відео:
кодек:
розмір кадру: 1280х720
бітрейт: 4742 кб/с

Аудіо # 1:
мова: українська
переклад: багатоголосий закадровий
кодек: 2.0 (з 5.1)
бітрейт: 192 кб/с

Аудіо # 2:
мова: українська
переклад: двоголосий закадровий
кодек: 2.0 (з 5.1)
бітрейт: 192 кб/с

Аудіо # 3:
мова: англійська
переклад: оригінал
кодек: 5.1
бітрейт: 384 кб/с

Субтитри:
мова: англійська
тип: програмні (м'які)
формат: *.srt
Info
General
Unique ID : 195468892467428125359693146056498803239 (0x930DF077453D180A9DD2BC4B506EF227)
Complete name : E:\Toloka\2020\Michael (1996) 720p.
Format :
Format version : Version 4
File size : 4.04 GiB
Duration : 1 h 45 min
Overall bit rate : 5 504 kb/s
Encoded date : UTC 2020-07-31 19:06:17
Writing application : v6.1.0 ('Old Devil') built on Mar 4 2013 09:10:42
Writing library : libebml v1.3.0 + v1.4.0

Video
ID : 1
Format : AVC
Format/Info : Advanced Video Codec
Format profile : [email protected]
Format settings : CABAC / 9 Ref Frames
Format settings, CABAC : Yes
Format settings, Reference : 9 frames
Codec ID : V_MPEG4/ISO/AVC
Duration : 1 h 45 min
Bit rate : 4 742 kb/s
Width : 1 280 pixels
Height : 720 pixels
Display aspect ratio : 16:9
Frame rate mode : Constant
Frame rate : 23.976 (24000/1001) FPS
Color space : YUV
Chroma subsampling : 4:2:0
Bit depth : 8 bits
Scan type : Progressive
Bits/(Pixel*Frame) : 0.215
Stream size : 3.40 GiB (84%)
Writing library : core 146 r2538 121396c
Encoding settings : cabac=1 / ref=9 / deblock=1:-3:-3 / analyse=0x3:0x133 / me=umh / subme=11 / psy=1 / psy_rd=1.00:0.10 / mixed_ref=1 / me_range=32 / chroma_me=1 / trellis=2 / 8x8dct=1 / cqm=0 / deadzone=21,11 / fast_pskip=0 / chroma_qp_offset=-3 / threads=12 / lookahead_threads=3 / sliced_threads=0 / nr=0 / decimate=0 / interlaced=0 / bluray_compat=0 / constrained_intra=0 / bframes=9 / b_pyramid=2 / b_adapt=2 / b_bias=0 / direct=3 / weightb=1 / open_gop=0 / weightp=2 / keyint=240 / keyint_min=23 / scenecut=40 / intra_refresh=0 / rc=2pass / mbtree=0 / bitrate=4742 / ratetol=1.0 / qcomp=0.60 / qpmin=0 / qpmax=69 / qpstep=4 / cplxblur=20.0 / qblur=0.5 / ip_ratio=1.40 / pb_ratio=1.30 / aq=3:1.00
Language : English
Default : Yes
Forced : No
Duration_Source : General_Duration

Audio #1
ID : 2
Format : AC-3
Format/Info : Audio Coding 3
Commercial name : Dolby Digital
Codec ID : A_AC3
Duration : 1 h 45 min
Bit rate mode : Constant
Bit rate : 192 kb/s
Channel(s) : 2 channels
Channel layout : L R
Sampling rate : 48.0 kHz
Frame rate : 31.250 FPS (1536 SPF)
Compression mode : Lossy
Stream size : 144 MiB (3%)
Title : UKR (Inter)
Language : Ukrainian
Service kind : Complete Main
Default : Yes
Forced : Yes
Duration_Source : General_Duration

Audio #2
ID : 3
Format : AC-3
Format/Info : Audio Coding 3
Commercial name : Dolby Digital
Codec ID : A_AC3
Duration : 1 h 45 min
Bit rate mode : Constant
Bit rate : 192 kb/s
Channel(s) : 2 channels
Channel layout : L R
Sampling rate : 48.0 kHz
Frame rate : 31.250 FPS (1536 SPF)
Compression mode : Lossy
Stream size : 144 MiB (3%)
Title : UKR (Новий)
Language : Ukrainian
Service kind : Complete Main
Default : No
Forced : No
Duration_Source : General_Duration

Audio #3
ID : 4
Format : AC-3
Format/Info : Audio Coding 3
Commercial name : Dolby Digital
Codec ID : A_AC3
Duration : 1 h 45 min
Bit rate mode : Constant
Bit rate : 384 kb/s
Channel(s) : 6 channels
Channel layout : L R C LFE Ls Rs
Sampling rate : 48.0 kHz
Frame rate : 31.250 FPS (1536 SPF)
Compression mode : Lossy
Stream size : 289 MiB (7%)
Title : ENG
Language : English
Service kind : Complete Main
Default : No
Forced : No
Duration_Source : General_Duration

Text
ID : 5
Format : UTF-8
Codec ID : S_TEXT/UTF8
Codec ID/Info : UTF-8 Plain Text
Title : ENG
Language : English
Default : No
Forced : No
Скріншоти







За доріжки подяка п.: urij546724, gig_Panas, _oles
За постер подяка п. thefir
Особиста подяка пану denixx за надану матеріальну допомогу на підтримку цього і майбутніх релізів.
Джерело:


Срібний реліз (на рейтинг впливає 50% завантаженого)
 Трекер:    Зареєстрований   

Завантажити / скачати фільм українською



відео для новачків



 Зареєстрований:   2020-07-31 22:20
 Розмір:   4.04 GB 
 Оцінка фільму:   9.7/10 (Голосів: 6)
   
Інші релізи
   Майкл / Michael (1996) 2xUkr/Eng _oles  13 / 0   2.2 GB   2011-08-08 17:36 
Ваш часовий пояс: GMT + 2 Години

Нова тема   Відповісти