Дронині мандрони (2020) 720p

Нові коментарі

Нова тема   Відповісти
Автор Повідомлення
sergiyko.5 
Забанено
Забанено


З нами з: 25.02.16
Востаннє: 29.10.20
Повідомлень: 3648

2020-07-31 12:36  
Дронині мандрони (2020) 720p


Дронині мандрони (2020) 720p

Жанр: дитячий, музичний
Країна: Україна
Кінокомпанія: MEDIAGROUP 8
Режисер: Катерина Балабай
Атори: Степан Кравець - Дроня, Захарій Савел'єв - Сашко, Анна Копйова - Віка, Юлія Коник - Іра, Вероніка Рева - Катя, Поліна Локотош - Дарина, Даніїл Хіменко - Вітьок, Юрій Головін - дід Тарас, Данило Павлов - Кнопа, Олександр Казаков - Міха, Юрій Суржко - Андрій, Ярина Чаговець - директорка, Тетяна Семененко - Мар'яна, Олег Дідик - тато Дроні, Маргарита Русіна - мама Дроні

Сюжет:
11-річний Дроня понад усе хоче перемогти у конкурсі молодих програмістів та поїхати навчатися у відому IT-компанію.
Але батьки відправляють Дроню у літній табір, де йдуть змагання за звання кращого загону.
Перед Дронею та його новими друзями стоїть нелегке завдання – перемогти у конкурсі.


Тривалість: 01:33:30
Якість:

Відео: кодек: Н.264 розмір кадру: 1280 x 676 бітрейт: 2600 кб/с
Аудіо: мова: українська переклад: оригінал кодек: 2.0 бітрейт: 192 кб/с
Про файл:
General
Unique ID : 23971677107700588363340396377295657969 (0x1208C6EE720F29D7C79E40FFC5D59BF1)
Complete name : D:\Documents\Torrents\FILMS\Дронині мандрони.2020.720p..
Format :
Format version : Version 4
File size : 1.83 GiB
Duration : 1 h 33 min
Overall bit rate : 2 806 kb/s
Movie name : Дронині мандрони 2020 rip by sergiyko
Encoded date : UTC 2020-07-31 14:56:21
Writing application : v47.0.0 ('Black Flag') 64-bit
Writing library : libebml v1.3.10 + v1.5.2
Cover : Yes
Attachments : cover.jpeg

Video
ID : 1
Format : AVC
Format/Info : Advanced Video Codec
Format profile : [email protected]
Format settings : CABAC / 9 Ref Frames
Format settings, CABAC : Yes
Format settings, Reference : 9 frames
Codec ID : V_MPEG4/ISO/AVC
Duration : 1 h 33 min
Bit rate : 2 612 kb/s
Width : 1 280 pixels
Height : 676 pixels
Display aspect ratio : 1.895
Frame rate mode : Constant
Frame rate : 25.000 FPS
Color space : YUV
Chroma subsampling : 4:2:0
Bit depth : 8 bits
Scan type : Progressive
Bits/(Pixel*Frame) : 0.121
Stream size : 1.71 GiB (93%)
Title : Дронині мандрони 2020
Writing library : core 159
Encoding settings : cabac=1 / ref=9 / deblock=1:0:0 / analyse=0x3:0x133 / me=umh / subme=10 / psy=1 / psy_rd=1.00:0.00 / mixed_ref=1 / me_range=24 / chroma_me=1 / trellis=2 / 8x8dct=1 / cqm=0 / deadzone=21,11 / fast_pskip=1 / chroma_qp_offset=-2 / threads=21 / lookahead_threads=3 / sliced_threads=0 / nr=0 / decimate=1 / interlaced=0 / bluray_compat=0 / constrained_intra=0 / bframes=8 / b_pyramid=2 / b_adapt=2 / b_bias=0 / direct=3 / weightb=1 / open_gop=0 / weightp=2 / keyint=250 / keyint_min=25 / scenecut=40 / intra_refresh=0 / rc_lookahead=60 / rc=crf / mbtree=1 / crf=20.0 / qcomp=0.60 / qpmin=0 / qpmax=69 / qpstep=4 / ip_ratio=1.40 / aq=1:1.00
Language : Ukrainian
Default : Yes
Forced : No

Audio
ID : 2
Format : AC-3
Format/Info : Audio Coding 3
Commercial name : Dolby Digital
Codec ID : A_AC3
Duration : 1 h 33 min
Bit rate mode : Constant
Bit rate : 192 kb/s
Channel(s) : 2 channels
Channel layout : L R
Sampling rate : 48.0 kHz
Frame rate : 31.250 FPS (1536 SPF)
Compression mode : Lossy
Stream size : 128 MiB (7%)
Title : Оригінальна
Language : Ukrainian
Service kind : Complete Main
Default : Yes
Forced : No
Скріншоти:


Реліз: sergiyko


Золотий реліз (завантажене не впливає на рейтинг)
 Трекер:    Зареєстрований   

Завантажити / скачати український фільм



відео для новачків



 Зареєстрований:   2020-07-31 17:00
 Розмір:   1.83 GB 
 Оцінка фільму:   9.5/10 (Голосів: 29)
   
-_-B_Е_N_D_E_R-_- 
Забанено
Забанено


З нами з: 03.03.20
Востаннє: 29.10.20
Повідомлень: 736

2020-07-31 14:23  
+avc
sergiyko.5 
Забанено
Забанено


З нами з: 25.02.16
Востаннє: 29.10.20
Повідомлень: 3648

2020-07-31 17:01  
Торент оновлено. Відео замінено кращої якості.
roxj 
Свій


З нами з: 31.10.17
Востаннє: 03.03.21
Повідомлень: 71

2020-09-27 11:59  
Скачувала для спільного перегляду з підлітком.
Герої співають, згадали про Петриківський розпис, про дружбу. Нормальна стрічка. Весела, логічна, динамічна. Було пару ляпів, та загалом, мені все ж таки хочеться дивитися своє. І це головне.

alterego08 
Новенький


З нами з: 16.10.19
Востаннє: 03.03.21
Повідомлень: 13

2020-09-30 08:47  
Дроня? ви серйозно? с таким псевдо хлопцю тяжкувато було б в підлітковому таборі)
Ваш часовий пояс: GMT + 2 Години

Нова тема   Відповісти