Артеміс Фаул / Artemis Fowl (2020) 1080p Eng | sub Ukr/Eng

Нові коментарі

Нова тема   Відповісти
Автор Повідомлення
Anonymous 







2020-07-31 07:45  
Артеміс Фаул / Artemis Fowl (2020) 1080p Eng | sub Ukr/Eng

Артеміс Фаул / Artemis Fowl (2020) 1080p Eng | sub Ukr/Eng

Альтернативні український та оригінальні постери:

Жанр: фантастика, фентезі, пригодницький, екшн, сімейний
Країна: США



Кінокомпанія: Walt Disney Pictures, TKBC
Режисер: Кеннет Брана / Kenneth Branagh
Актори: Фердіа Шоу / Ferdia Shaw, Лара МакДоннел / Lara McDonnell, Колін Фаррелл / Colin Farrell, Джуді Денч / Judi Dench, Нонсо Анозі / Nonso Anozie, Хонґ Чау / Hong Chau, Сімона Кірбі / Simone Kirby, Міранда Рейсон / Miranda Raison, Джош Ґад / Josh Gad, Едріан Скарборо / Adrian Scarborough та інші.

Сюжет:
12-річний хлопчик на ім'я Артеміс Фаул є нащадком легендарної родини злочинців. У свої юні роки він вже досяг того рівня злодійської майстерності, який дозволяє йому з легкістю ошукувати дорослих. Випадково він дізнається про існування цілого світу глибоко у надрах землі, населеного ельфами, гномами та іншими казковими істотами. Артеміс поцупив у гномів золото і тепер його шукають як в підземному світі, так і на поверхні.

Сюжет засновано на серії романів ірландського письменника Йона Колфера.
Офіційні українські трейлери:




Рейтинг MPAA: PG - рекомендується присутність батьків
Вікова категорія: 6+
Тривалість: 01:34:21
Якість: 1080p
Відео:
кодек:
розмір кадру: 1920х1080
бітрейт: 8473 кб/с

Аудіо:*
мова: англійська
переклад: оригінал
кодек: 5.1
бітрейт: 448 кб/с

Субтитри # 1:
мова: українська
тип: програмні (м'які)
формат: *.srt
переклад: офіційний, Наталя Ковалишин

Субтитри # 2:
мова: англійська
тип: програмні (м'які)
формат: *.srt
Info
Код:
Complete name               : Artemis Fowl (2020) [Eng sub.Ukr,Eng] 1080p [Hurtom].
Format                      :
Format version              : Version 4
File size                   : 5.88 GiB
Duration                    : 1 h 34 min
Overall bit rate mode       : Variable
Overall bit rate            : 8 924 kb/s
Movie name                  : Артеміс Фаул / Artemis Fowl (2020) [Eng sub.Ukr,Eng] 1080p [Hurtom]
Encoded date                : UTC 2020-07-31 12:26:49
Writing application         : v48.0.0 ('Fortress Around Your Heart') 64-bit
Writing library             : libebml v1.4.0 + v1.6.0
Cover                       : Yes
Attachments                 : cover.jpg

Video
ID                          : 1
Format                      : AVC
Format/Info                 : Advanced Video Codec
Format profile              : [email protected]
Format settings             : CABAC / 4 Ref Frames
Format settings, CABAC      : Yes
Format settings, Reference  : 4 frames
Codec ID                    : V_MPEG4/ISO/AVC
Duration                    : 1 h 34 min
Bit rate mode               : Variable
Bit rate                    : 8 473 kb/s
Maximum bit rate            : 12.7 Mb/s
Width                       : 1 920 pixels
Height                      : 1 080 pixels
Display aspect ratio        : 16:9
Frame rate mode             : Constant
Frame rate                  : 23.976 (24000/1001) FPS
Color space                 : YUV
Chroma subsampling          : 4:2:0
Bit depth                   : 8 bits
Scan type                   : Progressive
Bits/(Pixel*Frame)          : 0.170
Stream size                 : 5.58 GiB (95%)
Title                       : Артеміс Фаул / Artemis Fowl (2020) 1080p [SECRECY]
Language                    : English
Default                     : Yes
Forced                      : No
Color range                 : Limited
Color primaries             : BT.709
Transfer characteristics    : BT.709
Matrix coefficients         : BT.709

Audio
ID                          : 2
Format                      : AC-3
Format/Info                 : Audio Coding 3
Commercial name             : Dolby Digital
Codec ID                    : A_AC3
Duration                    : 1 h 34 min
Bit rate mode               : Constant
Bit rate                    : 448 kb/s
Channel(s)                  : 6 channels
Channel layout              : L R C LFE Ls Rs
Sampling rate               : 48.0 kHz
Frame rate                  : 31.250 FPS (1536 SPF)
Compression mode            : Lossy
Stream size                 : 302 MiB (5%)
Language                    : English
Service kind                : Complete Main
Default                     : Yes
Forced                      : No

Text #1
ID                          : 3
Format                      : UTF-8
Codec ID                    : S_TEXT/UTF8
Codec ID/Info               : UTF-8 Plain Text
Duration                    : 1 h 33 min
Bit rate                    : 102 b/s
Count of elements           : 1363
Stream size                 : 69.8 KiB (0%)
Title                       : Ukr Full [Official]
Language                    : Ukrainian
Default                     : Yes
Forced                      : Yes

Text #2
ID                          : 4
Format                      : UTF-8
Codec ID                    : S_TEXT/UTF8
Codec ID/Info               : UTF-8 Plain Text
Duration                    : 1 h 27 min
Bit rate                    : 63 b/s
Count of elements           : 1515
Stream size                 : 40.7 KiB (0%)
Title                       : Eng Full
Language                    : English
Default                     : No
Forced                      : No


Джерело: &
Подяка за надані субтитри п. sub.Trader (subscene).

* у випадку появи українського озвучення/дубляжу реліз буде оновлено.


 Трекер:    Зареєстрований   

Завантажити / скачати фільм українською



відео для новачків



 Зареєстрований:   2020-07-31 15:22
 Розмір:   5.88 GB 
 Оцінка фільму:   9.9/10 (Голосів: 15)
 ЗАЛИШАЙТЕСЬ ЯКОМОГА ДОВШЕ НА РОЗДАЧІ! ЗАВАНТАЖИВ САМ - ДАЙ ЗАВАНТАЖИТИ ІНШИМ!
   
Ваш часовий пояс: GMT + 2 Години

Нова тема   Відповісти