Мамця (Сезон 6) / Mom (Season 6) (2018-2019) 1080p Ukr/Eng | Sub Eng

Нові коментарі

Нова тема   Відповісти
Автор Повідомлення
Anonymous 







2020-07-30 22:14  
Мамця (Сезон 6) / Mom (Season 6) (2018-2019) 1080p Ukr/Eng | Sub Eng

Мамця (Сезон 6) / Mom (Season 6) (2018-2019) 1080p Ukr/Eng | Sub Eng

Жанр: комедія, драма, романтичний
Країна: США



Кінокомпанія: Chuck Lorre Productions, Warner Bros. Television
Режисер: Джемма Бейкер (Gemma Baker), Едді Ґородецький (Eddie Gorodetsky), Чак Лоррі (Chuck Lorre)
Актори: Анна Фаріс (Anna Faris), Еллісон Дженні (Allison Janney), Джеймі Преслі (Jaime Pressly), Саді Кальвано (Sadie Calvano), Мімі Кенеді (Mimi Kennedy) та інші

Сюжет:
Крісті - мати-одиначка, яка виховує двох дітей і намагається побороти алкогольну залежність. Щоб прогодувати свою сім'ю, вона влаштувалася офіціанткою в місцевий ресторан, де у неї зав'язалися стосунки з начальником Габріелем. Постійний тиск на неї чинить власна мати, яка також є колишньою алкоголічкою. Крісті постійно стикається з проблемами в житті: старша дочка почала жити дорослим життям, колишній чоловік постійно намагається підставити її, новий коханець виявився одруженим. Крісті намагається у всьому поганому знайти щось хороше, що допомагає їй стати сильною людиною, яка готова пройти будь-які випробування, що виникають на її шляху.


Тривалість: 1 серія: ~21 хв. (цілком серій: 22)
Перелік серій
01) Pre-Washed Lettuce and a Mime
02) Go-Go Boots and a Butt Cushion
03) Ambulance Chasers and a Babbling Brook
04) Big Sauce and Coconut Water
05) Flying Monkeys and a Tank of Nitrous
06) Cottage Cheese and a Weird Buzz
07) Puzzle Club and a Closet Party
08) Jell-O Shots and the Truth About Santa
09) Pork Loin and a Beat-up Monte Carlo
10) Flamingos and a Dance-Based Exercise Class
11) Foot Powder and the Barrelworks Pirates
12) Hacky Sack and a Beautiful Experience
13) Big Floor Pillows and a Ball of Fire
14) Kalamazoo And a Bad Wedge of Brie
15) Sparkling Banter and a Failing Steel Town
16) Skippy And The Knowledge Hole
17) A Dark Closet and Therapy with Horses
18) Soup Town and a Little Blonde Mongoose
19) Lumbar Support and Old Pork
20) Triple Dip and an Overhand Grip
21) Finger Guns and a Beef Bourguignon
22) Crazy Hair and a Teeny Tiny Part of Canada
Якість: [Amazon]
Відео:
кодек:
розмір кадру: 1920 х 1080
бітрейт: ~10 мб/с

Аудіо # 1:
мова: українська
переклад: багатоголосий закадровий | Paramount Comedy
кодек: 2.0
бітрейт: 192 кб/с

Аудіо # 2:
мова: англійська
переклад: оригінал
кодек: E- 5.1
бітрейт: 640 кб/с

Субтитри:
мова: англійська
тип: програмні (м'які)
формат: *.srt
Info
General
Unique ID : 197879671407206140718789191229141838733 (0x94DE3D0B60C49C7C5BF8990338D26B8D)
Complete name : E:\Support\Mom (Season 6) [, 1080p, Ukr, Eng]\Mom. s06e01. Pre-Washed Lettuce and a Mime.
Format :
Format version : Version 4
File size : 1.73 GiB
Duration : 21 min 22 s
Overall bit rate : 11.6 Mb/s
Encoded date : UTC 2020-07-14 19:01:24
Writing application : v48.0.0 ('Fortress Around Your Heart') 64-bit
Writing library : libebml v1.4.0 + v1.6.0

Video
ID : 1
Format : AVC
Format/Info : Advanced Video Codec
Format profile : [email protected]
Format settings : CABAC / 4 Ref Frames
Format settings, CABAC : Yes
Format settings, Reference : 4 frames
Codec ID : V_MPEG4/ISO/AVC
Duration : 21 min 22 s
Bit rate : 10.7 Mb/s
Width : 1 920 pixels
Height : 1 080 pixels
Display aspect ratio : 16:9
Frame rate mode : Constant
Frame rate : 24.000 FPS
Color space : YUV
Chroma subsampling : 4:2:0
Bit depth : 8 bits
Scan type : Progressive
Bits/(Pixel*Frame) : 0.216
Stream size : 1.60 GiB (93%)
Language : English
Default : Yes
Forced : No
Color range : Limited
Color primaries : BT.709
Transfer characteristics : BT.709
Matrix coefficients : BT.709

Audio #1
ID : 2
Format : AC-3
Format/Info : Audio Coding 3
Commercial name : Dolby Digital
Codec ID : A_AC3
Duration : 21 min 22 s
Bit rate mode : Constant
Bit rate : 192 kb/s
Channel(s) : 2 channels
Channel layout : L R
Sampling rate : 48.0 kHz
Frame rate : 31.250 FPS (1536 SPF)
Compression mode : Lossy
Stream size : 29.4 MiB (2%)
Title : Paramount Comedy
Language : Ukrainian
Service kind : Complete Main
Default : Yes
Forced : No

Audio #2
ID : 3
Format : E-AC-3
Format/Info : Enhanced AC-3
Commercial name : Dolby Digital Plus
Codec ID : A_EAC3
Duration : 21 min 22 s
Bit rate mode : Constant
Bit rate : 640 kb/s
Channel(s) : 6 channels
Channel layout : L R C LFE Ls Rs
Sampling rate : 48.0 kHz
Frame rate : 31.250 FPS (1536 SPF)
Compression mode : Lossy
Stream size : 97.9 MiB (6%)
Language : English
Service kind : Complete Main
Default : No
Forced : No

Text
ID : 4
Format : UTF-8
Codec ID : S_TEXT/UTF8
Codec ID/Info : UTF-8 Plain Text
Duration : 20 min 51 s
Bit rate : 93 b/s
Count of elements : 454
Stream size : 14.4 KiB (0%)
Language : English
Default : No
Forced : No
Скріншоти
Джерело:
Особиста оцінка: 0 - не дивився





Бронзовий реліз (на рейтинг впливає 75% завантаженого)
 Трекер:    Зареєстрований   

Завантажити / скачати серіал українською



відео для новачків



 Зареєстрований:   2020-07-30 22:14
 Розмір:   36.68 GB 
 Оцінка серіалу:   10/10 (Голосів: 6)
   
vkrav4uk 
Свій


З нами з: 03.03.12
Востаннє: 29.11.20
Повідомлень: 72

2020-07-31 15:41  
Дякую, чекав! =)
Strong_vs 
Новенький


З нами з: 25.11.09
Востаннє: 26.11.20
Повідомлень: 8

2020-08-23 06:52  
Дуже дякую.
Чекатиму 7-го сезону.
Якість чудова, озвучення на висоті!

Ваш часовий пояс: GMT + 2 Години

Нова тема   Відповісти