Найкращий стрілець (Кращий стрілець) / Top gun (1986) 720p 2xUkr/Eng | Sub Eng

Нові коментарі

Нова тема   Відповісти
Останній раз роздавалося milukh (2020-09-25)
Автор Повідомлення
Anonymous 







2020-07-30 20:05  
Найкращий стрілець (Кращий стрілець) / Top gun (1986) 720p 2xUkr/Eng | Sub Eng

Найкращий стрілець (Кращий стрілець) / Top gun (1986) 720p 2xUkr/Eng | Sub Eng


Жанр: бойовик, драма
Країна: США



Кінокомпанія: Paramount Pictures
Режисер: Тоні Скотт
Актори: Том Круз, Келлі Макгіліс, Вел Кілмер, Майкл Айронсайд та ін.

Сюжет:
Майстерний пілот винищувача Ф-14, курсант елітного училища ВМС США, який літає як бог і керований як в житті, так і в небі інстинктами, а не розумом, закохується в інструктора училища, астрофізика, яка довгий час відмовляє йому у взаємності. Поступиться вона його білозубій усмішці?


Тривалість: 01:49:41
Якість: 720p
Відео:
кодек:
розмір кадру: 1280х534
бітрейт: 5653 кб/с

Аудіо # 1:
мова: українська
переклад: двоголосий закадровий
кодек: 2.0
бітрейт: 192 кб/с

Аудіо # 2:
мова: українська
переклад: багатоголосий закадровий
кодек: 2.0 (з 5.1)
бітрейт: 192 кб/с

Аудіо # 3:
мова: англійська
переклад: оригінал
кодек: 5.1
бітрейт: 448 кб/с

Аудіо # 4:
мова: англійська [коментарі]
переклад: оригінал
кодек: 2.0
бітрейт: 192 кб/с

Субтитри:
мова: англійська
тип: програмні (м'які)
формат: *.srt
Info
General
Unique ID : 183741158602923605710765142496951059840 (0x8A3B428B3AD15BDFA74932DFF7CAC580)
Complete name : E:\Toloka\2020\Top Gun (1986) 720p.
Format :
Format version : Version 4
File size : 5.11 GiB
Duration : 1 h 49 min
Overall bit rate : 6 667 kb/s
Encoded date : UTC 2020-07-30 16:56:32
Writing application : v6.1.0 ('Old Devil') built on Mar 4 2013 09:10:42
Writing library : libebml v1.3.0 + v1.4.0

Video
ID : 1
Format : AVC
Format/Info : Advanced Video Codec
Format profile : [email protected]
Format settings : CABAC / 12 Ref Frames
Format settings, CABAC : Yes
Format settings, Reference : 12 frames
Codec ID : V_MPEG4/ISO/AVC
Duration : 1 h 49 min
Bit rate : 5 653 kb/s
Width : 1 280 pixels
Height : 534 pixels
Display aspect ratio : 2.40:1
Frame rate mode : Constant
Frame rate : 23.976 (24000/1001) FPS
Color space : YUV
Chroma subsampling : 4:2:0
Bit depth : 8 bits
Scan type : Progressive
Bits/(Pixel*Frame) : 0.345
Stream size : 4.22 GiB (83%)
Writing library : core 160 r3000 33f9e14
Encoding settings : cabac=1 / ref=12 / deblock=1:-3:-3 / analyse=0x3:0x133 / me=umh / subme=11 / psy=1 / psy_rd=1.00:0.00 / mixed_ref=1 / me_range=32 / chroma_me=1 / trellis=2 / 8x8dct=1 / cqm=0 / deadzone=21,11 / fast_pskip=0 / chroma_qp_offset=-2 / threads=12 / lookahead_threads=4 / sliced_threads=0 / nr=0 / decimate=0 / interlaced=0 / bluray_compat=0 / constrained_intra=0 / bframes=12 / b_pyramid=2 / b_adapt=2 / b_bias=0 / direct=3 / weightb=1 / open_gop=0 / weightp=2 / keyint=240 / keyint_min=23 / scenecut=40 / intra_refresh=0 / rc=2pass / mbtree=0 / bitrate=5653 / ratetol=1.0 / qcomp=0.65 / qpmin=0 / qpmax=69 / qpstep=4 / cplxblur=20.0 / qblur=0.5 / ip_ratio=1.25 / pb_ratio=1.30 / aq=2:0.80
Language : English
Default : Yes
Forced : No
Color range : Limited
Color primaries : BT.709
Transfer characteristics : BT.709
Matrix coefficients : BT.709
Duration_Source : General_Duration

Audio #1
ID : 2
Format : AC-3
Format/Info : Audio Coding 3
Commercial name : Dolby Digital
Codec ID : A_AC3
Duration : 1 h 49 min
Bit rate mode : Constant
Bit rate : 192 kb/s
Channel(s) : 2 channels
Channel layout : L R
Sampling rate : 48.0 kHz
Frame rate : 31.250 FPS (1536 SPF)
Compression mode : Lossy
Stream size : 151 MiB (3%)
Title : UKR (1+1)
Language : Ukrainian
Service kind : Complete Main
Default : Yes
Forced : Yes
Duration_Source : General_Duration

Audio #2
ID : 3
Format : AC-3
Format/Info : Audio Coding 3
Commercial name : Dolby Digital
Codec ID : A_AC3
Duration : 1 h 49 min
Bit rate mode : Constant
Bit rate : 192 kb/s
Channel(s) : 2 channels
Channel layout : L R
Sampling rate : 48.0 kHz
Frame rate : 31.250 FPS (1536 SPF)
Compression mode : Lossy
Stream size : 151 MiB (3%)
Title : UKR (ICTV)
Language : Ukrainian
Service kind : Complete Main
Default : No
Forced : No
Duration_Source : General_Duration

Audio #3
ID : 4
Format : AC-3
Format/Info : Audio Coding 3
Commercial name : Dolby Digital
Codec ID : A_AC3
Duration : 1 h 49 min
Bit rate mode : Constant
Bit rate : 448 kb/s
Channel(s) : 6 channels
Channel layout : L R C LFE Ls Rs
Sampling rate : 48.0 kHz
Frame rate : 31.250 FPS (1536 SPF)
Compression mode : Lossy
Stream size : 351 MiB (7%)
Title : ENG
Language : English
Service kind : Complete Main
Default : No
Forced : No
Duration_Source : General_Duration

Audio #4
ID : 5
Format : AC-3
Format/Info : Audio Coding 3
Commercial name : Dolby Digital
Codec ID : A_AC3
Duration : 1 h 49 min
Bit rate mode : Constant
Bit rate : 192 kb/s
Channel(s) : 2 channels
Channel layout : L R
Sampling rate : 48.0 kHz
Frame rate : 31.250 FPS (1536 SPF)
Compression mode : Lossy
Stream size : 151 MiB (3%)
Title : Коментарі
Language : English
Service kind : Complete Main
Default : No
Forced : No
Duration_Source : General_Duration

Text
ID : 6
Format : UTF-8
Codec ID : S_TEXT/UTF8
Codec ID/Info : UTF-8 Plain Text
Title : ENG
Language : English
Default : No
Forced : No

Menu
00:00:00.000 : en:Chapter 01
00:02:45.290 : en:Chapter 02
00:12:50.352 : en:Chapter 03
00:19:08.689 : en:Chapter 04
00:25:45.418 : en:Chapter 05
00:29:31.394 : en:Chapter 06
00:39:12.391 : en:Chapter 07
00:48:04.464 : en:Chapter 08
00:55:28.033 : en:Chapter 09
01:01:32.772 : en:Chapter 10
01:04:04.507 : en:Chapter 11
01:13:42.960 : en:Chapter 12
01:21:14.828 : en:Chapter 13
01:27:09.891 : en:Chapter 14
01:34:23.991 : en:Chapter 15
01:42:03.784 : en:Chapter 16
Скріншоти








За доріжки подяка п. xslim, krigg070, kryk-v.ya., Romario_O
Особиста подяка пану denixx за надану матеріальну допомогу на підтримку цього і майбутніх релізів.
Джерело:


Срібний реліз (на рейтинг впливає 50% завантаженого)
 Трекер:    Зареєстрований   

Завантажити / скачати фільм українською



відео для новачків



 Зареєстрований:   2020-07-30 20:05
 Розмір:   5.11 GB 
 Оцінка фільму:   9.7/10 (Голосів: 3)
   
leicheman 
Відео Гуртом - фільмокрай
Відео Гуртом - фільмокрай


З нами з: 03.07.14
Востаннє: 25.09.20
Повідомлень: 5423

2020-07-30 23:42  
до цього фільму у мене є укр.саби з нетфліксу, якщо потрібні звертайтеся)
Anonymous 







2020-07-31 07:31  
leicheman
це добре. Я думаю тобі краще домовитися з одним з модераторів для викладання наявних сабів на сервер доріжок (потім додати лінк на них в тіло роздачі), щоб люди, кому вони потрібні, мали змогу їх скачати. Прошу зрозуміти: мені не важко додавати твої саби, але мені не хотілося б втрачати сідів які вже скачали реліз. Вони просто заб'ють на повторне перекачування і більше на стануть на роздачу. А це погано для нас усіх.

Ваш часовий пояс: GMT + 2 Години

Нова тема   Відповісти