Помста дружок / Revenge of the Bridesmaids (2010) 1080p Ukr/Eng | Sub Eng

Нові коментарі

Нова тема   Відповісти
Автор Повідомлення
Anonymous 







2020-07-30 17:56  
Помста дружок / Revenge of the Bridesmaids (2010) 1080p Ukr/Eng | Sub Eng

Помста дружок / Revenge of the Bridesmaids (2010) 1080p Ukr/Eng | Sub Eng


Жанр: мелодрама, комедія
Країна: США



Кінокомпанія: Von Zerneck Sertner Films
Режисер: Джеймс Хейман
Актори: Рейвен-Симон, Джоенна Гарсіа-Свішер, Бет Бродерік, Девід Клейтон Роджерс, Вірджинія Вільямс, Бріттані Ісібасі, Лайл Брокато, Енн МакКензі, Анжеліна Сордз

Сюжет:
Коли Абігель і Паркер повертаються з Нью-Йорка в місто свого дитинства, вони дізнаються, що їх краща подруга Рейчел - подружка нареченої на весіллі Кейтлін і Тоні, того самого Тоні, який раніше був хлопцем Рейчел. Абігель і Паркер вирішили взяти справу в свої руки.

Поки мама нареченої Олівія намагається влаштувати для своєї дочки досконале весілля, вони змушують Кейтлін зробити їх подружками нареченої, для того, щоб зірвати весілля. Чи вдасться їм це при суворому контролі Олівії? Чи будуть Рйчел і Тоні знову разом?


Тривалість: 01:26:58
Якість: 1080p
Відео:
кодек:
розмір кадру: 1920x1080
бітрейт: 13.6 Mб/с

Аудіо # 1:
мова: українська
переклад: багатоголосий закадровий
кодек: 2.0
бітрейт: 192 кб/с

Аудіо # 2:
мова: англійська
переклад: оригінал
кодек: E-AC-3 5.1
бітрейт: 640 кб/с

Субтитри:
мова: англійська
тип: програмні (м'які)
формат: *.srt
Info
General
Unique ID : 190304051272641357932983815750125221666 (0x8F2B3A22777243A9855EA15494D5F722)
Complete name : E:\Toloka\2020\Revenge of the Bridesmaids (2010) 1080p.
Format :
Format version : Version 4
File size : 8.94 GiB
Duration : 1 h 26 min
Overall bit rate : 14.7 Mb/s
Encoded date : UTC 2020-07-30 14:48:41
Writing application : v6.1.0 ('Old Devil') built on Mar 4 2013 09:10:42
Writing library : libebml v1.3.0 + v1.4.0

Video
ID : 1
Format : AVC
Format/Info : Advanced Video Codec
Format profile : [email protected]
Format settings : CABAC / 4 Ref Frames
Format settings, CABAC : Yes
Format settings, Reference : 4 frames
Codec ID : V_MPEG4/ISO/AVC
Duration : 1 h 26 min
Bit rate : 13.6 Mb/s
Width : 1 920 pixels
Height : 1 080 pixels
Display aspect ratio : 16:9
Frame rate mode : Constant
Frame rate : 24.000 FPS
Color space : YUV
Chroma subsampling : 4:2:0
Bit depth : 8 bits
Scan type : Progressive
Bits/(Pixel*Frame) : 0.273
Stream size : 8.25 GiB (92%)
Default : Yes
Forced : No
Color range : Limited
Color primaries : BT.709
Transfer characteristics : BT.709
Matrix coefficients : BT.709
Statistics Tags Issue : v41.0.0 ('Smarra') 64-bit 2020-07-29 19:42:29 / v6.1.0 ('Old Devil') built on Mar 4 2013 09:10:42 2020-07-30 14:48:41
FromStats_BitRate : 13879680
FromStats_Duration : 01:26:57.917000000
FromStats_FrameCount : 125230
FromStats_StreamSize : 9052877419
Duration_Source : General_Duration

Audio #1
ID : 2
Format : AC-3
Format/Info : Audio Coding 3
Commercial name : Dolby Digital
Codec ID : A_AC3
Duration : 1 h 26 min
Bit rate mode : Constant
Bit rate : 192 kb/s
Channel(s) : 2 channels
Channel layout : L R
Sampling rate : 48.0 kHz
Frame rate : 31.250 FPS (1536 SPF)
Compression mode : Lossy
Stream size : 119 MiB (1%)
Title : UKR (TET)
Language : Ukrainian
Service kind : Complete Main
Default : Yes
Forced : Yes
Duration_Source : General_Duration

Audio #2
ID : 3
Format : E-AC-3
Format/Info : Enhanced AC-3
Commercial name : Dolby Digital Plus
Codec ID : A_EAC3
Duration : 1 h 26 min
Bit rate mode : Constant
Bit rate : 640 kb/s
Channel(s) : 6 channels
Channel layout : L R C LFE Ls Rs
Sampling rate : 48.0 kHz
Frame rate : 31.250 FPS (1536 SPF)
Compression mode : Lossy
Stream size : 398 MiB (4%)
Title : ENG
Language : English
Service kind : Complete Main
Default : No
Forced : No
Statistics Tags Issue : v41.0.0 ('Smarra') 64-bit 2020-07-29 19:42:29 / v6.1.0 ('Old Devil') built on Mar 4 2013 09:10:42 2020-07-30 14:48:41
FromStats_BitRate : 640000
FromStats_Duration : 01:26:57.888000000
FromStats_FrameCount : 163059
FromStats_StreamSize : 417431040
Duration_Source : General_Duration

Text #1
ID : 4
Format : UTF-8
Codec ID : S_TEXT/UTF8
Codec ID/Info : UTF-8 Plain Text
Title : ENG
Language : English
Default : No
Forced : No
Statistics Tags Issue : v41.0.0 ('Smarra') 64-bit 2020-07-29 19:42:29 / v6.1.0 ('Old Devil') built on Mar 4 2013 09:10:42 2020-07-30 14:48:41
FromStats_BitRate : 94
FromStats_Duration : 01:26:19.545000000
FromStats_FrameCount : 1859
FromStats_StreamSize : 61037

Text #2
ID : 5
Format : UTF-8
Codec ID : S_TEXT/UTF8
Codec ID/Info : UTF-8 Plain Text
Title : ENG SDH
Language : English
Default : No
Forced : No
Statistics Tags Issue : v41.0.0 ('Smarra') 64-bit 2020-07-29 19:42:29 / v6.1.0 ('Old Devil') built on Mar 4 2013 09:10:42 2020-07-30 14:48:41
FromStats_BitRate : 94
FromStats_Duration : 01:26:19.545000000
FromStats_FrameCount : 1859
FromStats_StreamSize : 61037
Скріншоти









За доріжку подяка п.: xslim, AngryBirdsUA
Особиста подяка пану denixx за надану матеріальну допомогу на підтримку цього і майбутніх релізів.
Джерело:


 Трекер:    Зареєстрований   

Завантажити / скачати фільм українською



відео для новачків



 Зареєстрований:   2020-07-30 17:56
 Розмір:   8.94 GB 
 Оцінка фільму:   7.8/10 (Голосів: 4)
   
Інші релізи
   Помста дружок / Revenge of the Bridesmaids (2010) AngryBirdsUA  1 / 0   1.41 GB   2013-06-05 22:08 
Ваш часовий пояс: GMT + 2 Години

Нова тема   Відповісти