Тунель. Небезпечно для життя / Tunnelen (2019) Remux 1080р Ukr/Nor | Sub Nor/Eng

Нові коментарі

Нова тема   Відповісти
Автор Повідомлення
Anonymous 







2020-07-30 14:31  
Тунель. Небезпечно для життя / Tunnelen (2019) Remux 1080р Ukr/Nor | Sub Nor/Eng




Альтернативні постери
Тунель. Небезпечно для життя / Tunnelen (2019) Remux 1080р Ukr/Nor | Sub Nor/Eng



«Сотні машин, тисячі людей, один шанс врятуватися»




Жанр: драма, трилер
Країна: Норвегія







Кінокомпанія: Nordisk Film Production AS, Handmade films in Norwegian woods
Режисер: Пол Ойє / Pål Øie
Актори: Торбьорн Гарр / Thorbjørn Harr, Ільва Фюґлеґуд / Ylva Fuglerud, Ліза Карлегед / Lisa Carlehed, Міккель Братт Сільсет / Mikkel Bratt Silset, Петер Форде / Peter Forde, Даніель Александер Скадаль / Daniel Alexander Skadal, Пер Егіль Аске / Per Egil Aske, Тор Крістіан Блейклі / Tor Christian Bleikli, Ян Гуннар Рейсе / Jan Gunnar Røise та інші.

Сюжет:
У Норвегії понад 1100 тунелів, більшість із них не має аварійних виходів…Фільм знято за реальними подіями, які відбувались під час пожежі, що виникла в заблокованому численними авто тунелі без аварійних виходів.


Тривалість: 01:43:45
Якість: Blu-Ray Remux 1080p

Відео:
кодек:
розмір кадру: 1920 x 1080
бітрейт: ~ 24000 кб/с

Аудіо # 1:
мова: українська
переклад: професійний дубльований
кодек: 2.0
бітрейт: 192 кб/с

Аудіо # 2:
мова: норвезька
переклад: оригінал
кодек: -HD Master 5.1
бітрейт: 3925 кб/с

Субтитри:
мова: норвезька
тип: програмні (м'які)
формат: *.srt

Субтитри:
мова: англійська
тип: програмні (м'які)
формат: *.srt
Info
Код:

General
Complete name                            : Tunnelen (2019) Blu-Ray Remux 1080p [ukr, nor] [Video_Hurtom].
Format                                   :
Format version                           : Version 4
File size                                : 20.4 GiB
Duration                                 : 1 h 43 min
Overall bit rate mode                    : Variable
Overall bit rate                         : 28.1 Mb/s
Movie name                               : Тунель. Небезпечно для життя / Tunnelen (2019)
Encoded date                             : UTC 2020-07-30 14:11:51
Writing application                      : v30.1.0 ('Forever And More') 64-bit
Writing library                          : libebml v1.3.6 + v1.4.9
Cover                                    : Yes
Attachments                              : cover.jpg

Video
ID                                       : 1
Format                                   : AVC
Format/Info                              : Advanced Video Codec
Format profile                           : [email protected]
Format settings                          : CABAC / 4 Ref Frames
Format settings, CABAC                   : Yes
Format settings, RefFrames               : 4 frames
Format settings, GOP                     : M=3, N=12
Codec ID                                 : V_MPEG4/ISO/AVC
Duration                                 : 1 h 43 min
Bit rate mode                            : Variable
Bit rate                                 : 24.0 Mb/s
Maximum bit rate                         : 35.0 Mb/s
Width                                    : 1 920 pixels
Height                                   : 1 080 pixels
Display aspect ratio                     : 16:9
Frame rate mode                          : Constant
Frame rate                               : 24.000 FPS
Standard                                 : NTSC
Color space                              : YUV
Chroma subsampling                       : 4:2:0
Bit depth                                : 8 bits
Scan type                                : Progressive
Bits/(Pixel*Frame)                       : 0.482
Stream size                              : 17.4 GiB (85%)
Language                                 : Norwegian
Default                                  : Yes
Forced                                   : No
Color range                              : Limited
Color primaries                          : BT.709
Transfer characteristics                 : BT.709
Matrix coefficients                      : BT.709

Audio #1
ID                                       : 2
Format                                   : AC-3
Format/Info                              : Audio Coding 3
Commercial name                          : Dolby Digital
Codec ID                                 : A_AC3
Duration                                 : 1 h 43 min
Bit rate mode                            : Constant
Bit rate                                 : 192 kb/s
Channel(s)                               : 2 channels
Channel layout                           : L R
Sampling rate                            : 48.0 kHz
Frame rate                               : 31.250 FPS (1536 SPF)
Bit depth                                : 16 bits
Compression mode                         : Lossy
Stream size                              : 142 MiB (1%)
Title                                    : 2.0 | 192
Language                                 : Ukrainian
Service kind                             : Complete Main
Default                                  : Yes
Forced                                   : No

Audio #2
ID                                       : 3
Format                                   : XLL
Format/Info                              : Digital Theater Systems
Commercial name                          : -HD Master Audio
Codec ID                                 : A_DTS
Duration                                 : 1 h 43 min
Bit rate mode                            : Variable
Bit rate                                 : 3 925 kb/s
Channel(s)                               : 6 channels
Channel layout                           : C L R Ls Rs LFE
Sampling rate                            : 48.0 kHz
Frame rate                               : 93.750 FPS (512 SPF)
Bit depth                                : 24 bits
Compression mode                         : Lossless
Stream size                              : 2.84 GiB (14%)
Title                                    : -HD MA 5.1 | 3925
Language                                 : Norwegian
Default                                  : No
Forced                                   : No

Text #1
ID                                       : 4
Format                                   : UTF-8
Codec ID                                 : S_TEXT/UTF8
Codec ID/Info                            : UTF-8 Plain Text
Duration                                 : 1 h 39 min
Bit rate                                 : 4 b/s
Count of elements                        : 96
Stream size                              : 2.92 KiB (0%)
Title                                    : for foreign parts
Language                                 : Norwegian
Default                                  : No
Forced                                   : No

Text #2
ID                                       : 5
Format                                   : UTF-8
Codec ID                                 : S_TEXT/UTF8
Codec ID/Info                            : UTF-8 Plain Text
Duration                                 : 1 h 41 min
Bit rate                                 : 37 b/s
Count of elements                        : 797
Stream size                              : 27.8 KiB (0%)
Title                                    : for hearing impaired
Language                                 : Norwegian
Default                                  : No
Forced                                   : No

Text #3
ID                                       : 6
Format                                   : UTF-8
Codec ID                                 : S_TEXT/UTF8
Codec ID/Info                            : UTF-8 Plain Text
Duration                                 : 1 h 41 min
Bit rate                                 : 36 b/s
Count of elements                        : 751
Stream size                              : 27.2 KiB (0%)
Language                                 : Norwegian
Default                                  : No
Forced                                   : No

Text #4
ID                                       : 7
Format                                   : UTF-8
Codec ID                                 : S_TEXT/UTF8
Codec ID/Info                            : UTF-8 Plain Text
Duration                                 : 1 h 38 min
Bit rate                                 : 40 b/s
Count of elements                        : 783
Stream size                              : 29.5 KiB (0%)
Title                                    : Full
Language                                 : English
Default                                  : No
Forced                                   : No

Menu
00:00:00.000                             : no:Глава 01
00:10:05.708                             : no:Глава 02
00:20:20.125                             : no:Глава 03
00:30:51.458                             : no:Глава 04
00:40:53.625                             : no:Глава 05
00:51:45.750                             : no:Глава 06
01:01:58.208                             : no:Глава 07
01:12:20.750                             : no:Глава 08
01:22:55.958                             : no:Глава 09
01:33:29.417                             : no:Глава 10
Скріншоти




Джерело: & eneyida.tv
Особиста оцінка: 8 - мені сподобалося


Золотий реліз (завантажене не впливає на рейтинг)
 Трекер:    Зареєстрований   

Завантажити / скачати фільм українською



відео для новачків



 Зареєстрований:   2020-07-30 18:21
 Розмір:   20.38 GB 
 Оцінка фільму:   9.2/10 (Голосів: 10)
   
Ваш часовий пояс: GMT + 2 Години

Нова тема   Відповісти